новый адрес пиратбит piratbit
Мега распродажа FORZA HORIZON 4 ULTIMATE+ВСЕ DLC+ОНЛАЙН всего за 499р. 349 руб. (супер цена). Внимание количество ограничено!!!

iTunes

1+1

iTunes

мы

iTunes

1

iTunes

Чернобыль

iTunes

Ральф против интернета

Лицензия

ПШазам

Лицензия

Игра престолов

Лицензия

30
pack

ВАЖНО

!!Акция!!

Alien_RageХит недели

RePack

Resident Evil 21

ИГРА 18+

pack

RePack

Metro:Exodus

!!Акция!!

Alien_Rage

RePack

fifa19

RePack

Assassins Creed: Odyssey

RePack

NEED FOR SPEED™ PAYBACK

3 сезон

9 сезон

Бесстыжие 9 сезон

Все сериалы

все сериалы на PB.wtf

RePack

FAR CRY 5
Ребята, катастрофически не хватает 1900р. для оплаты серверов за Октябрь (всвязи с блокировками трафик упал в 3 раза), 1-2р., выручайте.
  

Наследники / Succession / Сезон: 1 / Серии: 1-10 из 10 (Марк Майлод, Адам Аркин, Адам МакКей) [2018, драма, WEB-DLRip] MVO [Jaskier] pb.wtf

Наследники через торрент pb.wtf

Раздают: 2 [ 0 KB/s ]
Размер: 7.33 GB | Добавлен: 1 год 3 мес. назад | Торрент скачан:62 раза
Скачать  

06-06-2018 09:09 Наследники Скачать торрент  

Наследники / Succession
Год выпуска: 2018
Страна: США
Жанр: драма
Продолжительность: ~ 00:59:00
Перевод: Профессиональный (многоголосый) | Jaskier
Субтитры: Нет

Режиссер: Марк Майлод, Адам Аркин, Адам МакКей

rating

В ролях:

Хиам Аббасс, Брайан Кокс, Киран Калкин, Алан Рак, Сара Снук, Джереми Стронг, Келли П. Уильямс, Николас Браун, Дагмара Доминчик, Эшли Цукерман и др.

Описание:

Логан Рой — могущественный, но стареющий глава международного медийного конгломерата Waystar Royco. В будущем правление компанией должен принять старший сын, но прежде всей семье придется пережить интриги, предательство и неприкрытую борьбу за Влacть.

Качество: WEB-DLRip
Формат: AVI

Видео: ~ 1500 kbps, 720x400, 23.976 fps
Аудио#1 Rus: mp3, 48 KHz, 2 ch, 128 kbps
Аудио#2 Eng: mp3, 48 KHz, 2 ch, 128 kbps
скриншот   скриншот   скриншот  

Общее
Полное имя : F:\Succession. Season 1 (WEB-DLRip l 400p l Jaskier)\Succession.S01E01.WEB-DLRip.Rus.Eng.Jaskier.avi
Формат : AVI
Формат/Информация : Audio Video Interleave
Размер файла : 750 Мбайт
Продолжительность : 1 ч. 1 м.
Общий поток : 1698 Кбит/сек
Программа кодирования : VirtualDubMod 1.5.10.3 | www.virtualdub-fr.org || (build 2550/release)
Библиотека кодирования : VirtualDubMod build 2550/release

Видео
Идентификатор : 0
Формат : MPEG-4 Visual
Профиль формата : Advanced Simple@L5
Параметр BVOP формата : 1
Параметр QPel формата : Нет
Параметр GMC формата : Без точки перехода
Параметр матрицы формата : Выборочная
Идентификатор кодека : XVID
Идентификатор кодека/Подсказка : XviD
Продолжительность : 1 ч. 1 м.
Продолжительность оригинала : 46 м. 36 с.
Битрейт : 1493 Кбит/сек
Ширина : 720 пикселей
Высота : 400 пикселей
Соотношение сторон : 16:9
Частота кадров : 23,976 (23976/1000) кадра/сек
Цветовое пространство : YUV
Субдискретизация насыщенности : 4:2:0
Битовая глубина : 8 бит
Тип развёртки : Прогрессивная
Метод сжатия : С потерями
Бит/(Пиксели*Кадры) : 0.216
Размер потока : 498 Мбайт (66%)
Библиотека кодирования : XviD 73

Аудио #1
Идентификатор : 1
Формат : MPEG Audio
Версия формата : Version 1
Профиль формата : Layer 3
Режим : Joint stereo
Расширение режима : MS Stereo
Идентификатор кодека : 55
Идентификатор кодека/Подсказка : MP3
Продолжительность : 1 ч. 1 м.
Продолжительность оригинала : 46 м. 36 с.
Вид битрейта : Постоянный
Битрейт : 128 Кбит/сек
Каналы : 2 канала
Частота : 48,0 КГц
Метод сжатия : С потерями
Размер потока : 42,7 Мбайт (6%)
Выравнивание : Соединение по промежуткам
Продолжительность промежутка : 42 мс. (1,00 видеокадр)
Время предзагрузки промежутка : 504 мс.

Аудио #2
Идентификатор : 2
Формат : MPEG Audio
Версия формата : Version 1
Профиль формата : Layer 3
Режим : Joint stereo
Расширение режима : MS Stereo
Идентификатор кодека : 55
Идентификатор кодека/Подсказка : MP3
Продолжительность : 1 ч. 1 м.
Продолжительность оригинала : 46 м. 36 с.
Вид битрейта : Постоянный
Битрейт : 128 Кбит/сек
Каналы : 2 канала
Частота : 48,0 КГц
Метод сжатия : С потерями
Размер потока : 42,7 Мбайт (6%)
Выравнивание : Соединение по промежуткам
Продолжительность промежутка : 42 мс. (1,00 видеокадр)
Время предзагрузки промежутка : 504 мс.

Когда раздача ведётся путём добавления новых серий, при каждом добавлении создётся новый торрент. Чтобы начать докачку новой серии, пользователям необходимо сделать следующее:
(1) остановить скачивание,
(2) удалить старый торрент у себя из клиента (старые серии удалять не надо),
(3) скачать новый торрент и запустить его у себя в клиенте вместо старого, при этом указать клиенту путь в старую папку, куда и должно происходить скачивание новых серий.
Ваш клиент при этом должен произвести хеширование (проверку) старой папки (если не производит сам - помогите ему сделать это), и будет докачивать только те серии, которых у вас ещё нет. Старые серии при этом не удаляются, а продолжают раздаваться!
Eсли вы уже удалили старые серии, то предотвратить повторную закачку старых серий можно, отжав галочку в соответсвующих местах при запуске нового торрента. По возможности, желательно не удалять старые серии как можно дольше, чтобы релизёр не столько продолжал раздавать старые серии, а смог сконцентрироваться на новых.
pb.wtf



Скачать Наследники через торрент http://img12.lostpic.net/2018/06/05/76cf453024bdefc8e5d58b7f1d3ced8f.png Скачать фильм Наследники через торрент бесплантно в хорошем качестве Описание: Логан Рой — могущественный, но стареющий глава международного медийного конгломерата Waystar Royco. В будущем правление компанией ... 8.3 10 3
Торрент: Зарегистрирован [2018-08-08 20:32] · скачан: 62 раз
Статус: √ проверено
Размер: 7.33 GB
Как cкачать? Как скачать Наследники через торрент | qTorrent

% Раздел Тема Автор DL S | L
Зарубежные сериалы [ 44.99 GB ] Наследники / Succession / Сезон: 2 / Серии: 1-10 из 10 [2019 WEB-DL 1080p] MVO [Amedia / Novamedia] bober100 Скачать
2 | 0
Зарубежные сериалы [ 27.44 GB ] Наследники / Succession / Сезон: 2 / Серии: 1-10 из 10 [2019 WEB-DL 720p] [MVO] killermax2013 Скачать
1 | 0
Зарубежные сериалы [ 46.37 GB ] Наследники / Succession / Сезон: 2 / Серии: 1-10 из 10 [2019 WEB-DL 1080p] [MVO] killermax2013 Скачать
1 | 0
Зарубежные сериалы [ 43.07 GB ] Наследники / Succession / Сезон: 1 / Серии: 1-10 из 10 [2018 WEB-DL 1080p] MVO [Amedia] bober100 Скачать
1 | 0
Зарубежные сериалы [ 13.93 GB ] Наследники / Succession / Сезон: 1 / Серии: 1-10 из 10 [2018 WEB-DL 720p] MVO [Jaskier] bober100 Скачать
2 | 0
Зарубежные сериалы [ 45.38 GB ] Наследники / Succession / Сезон: 1 / Серии: 1-10 из 10 [2018 WEB-DL 1080p] [MVO] killermax2013 Скачать
1 | 0
Зарубежные сериалы [ 43.13 GB ] Наследники / Succession / Сезон: 1 / Серии: 1-10 из 10 [2018 WEB-DL 1080p] MVO [Jaskier] bober100 Скачать
1 | 0


Последний раз редактировалось: bober100 (2018-08-08 20:32), всего редактировалось 6 раз(а)


>> Регистрируемся здесь <<






Отзывы и комментарии о схеме читаем и пишем здесь: ---> Отзывы и комментарии о схеме

Новые благодарочки в телеграм довольных пользователей:
скриншот   скриншот   скриншот   скриншот   скриншот

27-06-2018 21:24 Наследники Скачать торрент  

Нормульный сериал, в самый раз сидеть в Украине и под дошерак смотреть как америкосы миллиарды делят...pb.wtf



    Дорогой пользователь! Огромная просьба, поблагодарите релизера, оцените раздачу и оставьте свои комментарий, если Вы скачали Наследники через торрент бесплатно! Внесите свою лепту в развитие PiratBit!
    Комментировать посты могут только пользователи прошедшие не сложную регистрацию
    Показать сообщения:    

    Наследники через торрент
    Скачать бесплатно Наследники
    Наследники скачать торрент
    Наследники смотреть онлайн
    Cкачать фильм Наследники бесплатно
    Наследники скачать торрент в хорошем качестве
    Наследники смотреть онлайн бесплатно в хорошем качестве


    Вы не можете начинать темы
    Вы не можете отвечать на сообщения
    Вы не можете редактировать свои сообщения
    Вы не можете удалять свои сообщения
    Вы не можете голосовать в опросах
    Вы не можете прикреплять файлы к сообщениям
    Вы можете скачивать файлы