Достать ножи: Стеклянная луковица

MVO

Добыча

Дубляж

Уэнсдэй

1 сезон

Тор

Дубляж

13 клиническая

1 сезон

Жестокая ночь

MVO

Одни из нас

1 сезон

Deluxe

pack

Рекомендуем

30

Пиратка

ВАЖНО

ВАЖНО

Ghostwire

Пиратка

jed

RePack

nioh2

RePack

RDR2

RePack

NEED FOR SPEED™ PAYBACK

RePack

скачать торрент

Кинопоиск HD

Острые козырьки 6 сезон

6 сезон

FAR CRY 6

RePack

скачать торрент

Лицензия

скачать торрент

MVO

1

1 сезон

скачать торрент

1 сезон

скачать торрент

Лицензия

  

Северная повесть (Евгений Андриканис) [1960, СССР, драма, мелодрама, биография, история, DVDRip от AVP Studio]

Северная повесть через торрент pb.wtf

Размер: 745 MB | Добавлен: 4 года 8 мес. назад | Торрент скачан:14 раз
Смотреть онлайн | Скачать | Поддержите нас   

06-06-2018 09:26 Северная повесть Скачать торрент  

Северная повесть
Страна: СССР
Производство: Мосфильм

Жанр: драма, мелодрама, биография, история
Год выпуска: 1960
Продолжительность: 01:12:51

Перевод: Не требуется
Cубтитры: нет
Оригинальная аудиодорожка: русский

Режиссер: Евгений Андриканис

В ролях:
Олег Стриженов, Иева Мурниеце, Валентин Зубков, Геннадий Юдин, Николай Свободин, Виктор Кулаков, Георгий Черноволенко, Александр Кутепов, Фёдор Никитин, Андрей Файт, Иван Кузнецов, Николай Хрящиков...
Об актёрах подробней

Описание:
По одноименному произведению К. Г. Паустовского.
Однажды прекрасной белой ночью молодой художник Алексей Тихонов (Валентин Зубков) встретил в Петергофе девушку. И потом не мог забыть эту мимолётную встречу. А позже случайно в кабинете академика Щедрина (Геннадий Юдин) он увидел портрет женщины, удивительно похожей на его незнакомку. Академик рассказал ему историю этой женщины - историю трагическую и красивую...

Источник: DVD5 R5
Качество видео: DVDRip
Формат видео: AVI

Видео: 688х512 (4:3), 25 fps, XviD ~ 1227 kbps avg, 0.139 bit/pixel
Аудио: 48 kHz, Dolby Digital AC3 2.0, 192 kbps

Раздача от:
Общее
Полное имя : Severnaya.povest.1960.DVDRip_[New-team]_by_AVP_Studio.avi
Формат : AVI
Формат/Информация : Audio Video Interleave
Размер файла : 745 Мбайт
Продолжительность : 1 ч. 12 м.
Общий поток : 1429 Кбит/сек
Программа кодирования : VirtualDubMod 1.5.10.3 | www.virtualdub-fr.org || (build 2550/release)
Библиотека кодирования : VirtualDubMod build 2550/release

Видео
Идентификатор : 0
Формат : MPEG-4 Visual
Профиль формата : Advanced [email protected]
Настройки формата : BVOP1 / Custom Matrix
Параметр BVOP формата : 1
Параметр QPel формата : Нет
Параметр GMC формата : Без точки перехода
Параметр матрицы формата : Выборочная
Идентификатор кодека : XVID
Идентификатор кодека/Подсказка : XviD
Продолжительность : 1 ч. 12 м.
Битрейт : 1227 Кбит/сек
Ширина : 688 пикселей
Высота : 512 пикселей
Соотношение сторон : 4:3
Частота кадров : 25,000 кадров/сек
Цветовое пространство : YUV
Субдискретизация насыщенности : 4:2:0
Битовая глубина : 8 бит
Тип развёртки : Прогрессивная
Метод сжатия : С потерями
Бит/(Пиксели*Кадры) : 0.139
Размер потока : 640 Мбайт (86%)
Библиотека кодирования : XviD 73

Аудио
Идентификатор : 1
Формат : AC-3
Формат/Информация : Audio Coding 3
Идентификатор кодека : 2000
Продолжительность : 1 ч. 12 м.
Вид битрейта : Постоянный
Битрейт : 192 Кбит/сек
Каналы : 2 канала
Расположение каналов : Front: L R
Частота : 48,0 КГц
Частота кадров : 31,250 кадров/сек (1536 SPF)
Битовая глубина : 16 бит
Метод сжатия : С потерями
Размер потока : 100 Мбайт (13%)
Выравнивание : Разделение по промежуткам
Продолжительность промежутка : 40 мс. (1,00 видеокадр)
Время предзагрузки промежутка : 500 мс



Скачать Северная повесть через торрент http://picplus.ru/img/1805/29/35ef7299.png Скачать, смотреть онлайн Северная повесть бесплантно в хорошем качестве Описание:По одноименному произведению К. Г. Паустовского.Однажды прекрасной белой ночью молодой художник Алексей Тихонов (Валентин Зубков) ... 10 10 1
Info! Золотая раздача, скачанное не засчитывается.
Торрент: Зарегистрирован [2018-06-06 09:26] · скачан: 14 раз
Статус: √ проверено
Размер: 745 MB
Как cкачать? Как скачать Северная повесть через торрент | UTorrent

% Раздел Тема Автор DL S | L
Кино СССР [ 745 MB ] Северная повесть | | DVDRip-AVC от AVP Studio AVP Studio Скачать
1 | 0

28-11-2019 20:33  


Отключить вcю реклaмy на сайте, в т.ч. и в плеере онлайн просмотра!

    Дорогой пользователь! Огромная просьба, поблагодарите релизера, оцените раздачу и оставьте свои комментарий, если Вы скачали Северная повесть через торрент бесплатно!!
    Комментировать посты могут только пользователи прошедшие не сложную регистрацию
    Показать сообщения:    


    Северная повесть через торрент
    Скачать бесплатно Северная повесть
    Северная повесть скачать торрент
    Северная повесть смотреть онлайн
    Cкачать фильм Северная повесть бесплатно
    Северная повесть скачать торрент в хорошем качестве
    Северная повесть смотреть онлайн бесплатно в хорошем качестве
    Вы не можете начинать темы
    Вы не можете отвечать на сообщения
    Вы не можете редактировать свои сообщения
    Вы не можете удалять свои сообщения
    Вы не можете голосовать в опросах
    Вы не можете прикреплять файлы к сообщениям
    Вы можете скачивать файлы
    Северная повесть [1960, СССР, драма, мелодрама, биография, история, DVDRip от AVP Studio] смотреть онлайн, скачать торрент picoco.icu