Ссылка на приватное зеркало всего за 1$. Внимание количество ограничено!!!

OK

1+1

iTunes

мы

OK

1

WEB-DLRip

Джокер

Пифагор

Ведьмак / The Witcher сериал

iTunes

ПШазам

ОК

Оно 2

iTunes

30
pack

Вам бонус

ВАЖНО

!!Акция!!

Alien_RageХит недели

RePack

Resident Evil 21

ИГРА 18+

pack

RePack

jed

RePack

fifa19

RePack

Assassins Creed: Odyssey

RePack

NEED FOR SPEED™ PAYBACK

4 сезон

9 сезон

Бесстыжие 9 сезон

Все сериалы

все сериалы на PB.wtf

RePack

FAR CRY 5
  

Тонкая материя / Soft Matter (Джим Хиккокс) [2018, ужасы, фантастика, комедия, WEB-DL 720p] MVO [КОЛОБОК] pb.wtf

Тонкая материя через торрент pb.wtf

Размер: 2.42 GB | Добавлен: 1 год 7 мес. назад | Торрент скачан:47 раз
Скачать  

06-06-2018 12:15 Тонкая материя Скачать торрент  

Тонкая материя / Soft MatterГод выпуска: 2018
Страна: США
Жанр: ужасы, фантастика, комедия
Продолжительность: 01:12:26
Перевод: Любительский (многоголосый) | КОЛОБОК
Субтитры: отсутствуют

Режиссер: Джим Хиккокс

rating

В ролях:

Руби Ли Дов II, Хэл Шнайдер, Мэри Анцалоне, Девин Пласиде, Марк Блумберг, Катрин Грэйди, Сэм Стинсон

Описание:

Два граффитиста, проникшие в заброшенное здание, двое ученых, одержимых идеей бессмертия и одна яростная морская богиня.

Качество: WEB-DL 720p
Формат: MKV

Видео: h.264, 4 396 Кбит/с,1280x688
Аудио#1: Русский, (AC3, 2 ch, 384 Кбит/с)
скриншот  скриншот  скриншот  

Общее
Уникальный идентификатор : 221168188332042003707468697600174536262 (0xA66371940F2DE48D92D576D51C873646)
Полное имя : F:\Soft Matter.2018.Pk.WEB-DL.72Op.mkv
Формат : Matroska
Версия формата : Version 2
Размер файла : 2,42 Гбайт
Продолжительность : 1 ч. 12 м.
Режим общего битрейта : Переменный
Общий поток : 4782 Кбит/сек
Дата кодирования : UTC 2018-06-05 18:51:39
Программа кодирования : mkvmerge v8.3.0 ('Over the Horizon') 64bit
Библиотека кодирования : libebml v1.3.1 + libmatroska v1.4.2

Видео
Идентификатор : 1
Формат : AVC
Формат/Информация : Advanced Video Codec
Профиль формата : High@L4.1
Параметр CABAC формата : Да
Параметр RefFrames формата : 4 кадра
Идентификатор кодека : V_MPEG4/ISO/AVC
Продолжительность : 1 ч. 12 м.
Вид битрейта : Переменный
Битрейт : 4396 Кбит/сек
Максимальный битрейт : 5000 Кбит/сек
Ширина : 1280 пикселей
Высота : 688 пикселей
Соотношение сторон : 1,85:1
Режим частоты кадров : Постоянный
Частота кадров : 23,976 (24000/1001) кадра/сек
Стандарт вещания : Component
Цветовое пространство : YUV
Субдискретизация насыщенности : 4:2:0
Битовая глубина : 8 бит
Тип развёртки : Прогрессивная
Бит/(Пиксели*Кадры) : 0.204
Размер потока : 2,18 Гбайт (90%)
Default : Да
Forced : Нет
Цветовой диапазон : Limited
Основные цвета : BT.709
Характеристики трансфера : BT.709
Коэффициенты матрицы : BT.709

Аудио
Идентификатор : 2
Формат : AC-3
Формат/Информация : Audio Coding 3
Расширение режима : CM (complete main)
Параметр Endianness формата : Big
Идентификатор кодека : A_AC3
Продолжительность : 1 ч. 12 м.
Вид битрейта : Постоянный
Битрейт : 384 Кбит/сек
Каналы : 2 канала
Расположение каналов : Front: L R
Частота : 48,0 КГц
Частота кадров : 31,250 кадров/сек (1536 spf)
Метод сжатия : С потерями
Размер потока : 199 Мбайт (8%)
Default : Да
Forced : Нет

pb.wtf



Скачать Тонкая материя через торрент http://img12.lostpic.net/2018/06/06/c6a57239b597e4443b3fb56bfbec4ec4.jpg Скачать фильм Тонкая материя через торрент бесплантно в хорошем качестве Описание: Два граффитиста, проникшие в заброшенное здание, двое ученых, одержимых идеей бессмертия и одна яростная морская ... 8.2 10 5
Торрент: Зарегистрирован [2018-06-06 12:15] · скачан: 47 раз
Статус: T временная
Размер: 2.42 GB
Как cкачать? Как скачать Тонкая материя через торрент | qTorrent

% Раздел Тема Автор DL S | L
T Фильмы (мультфильмы) cо спонсором показа (Новинки AVI/MKV) [ 1.37 GB ] Тонкая материя / Soft Matter [2018 WEB-DLRip] MVO [КОЛОБОК] bober100 Скачать
1 | 0

28-11-2019 20:33  

Отключить всю рекламу на сайте

06-06-2018 17:07 Тонкая материя Скачать торрент  

что-то чувака похожего на водяного из Хеллбоя уже везде пихают._.pb.wtf



06-06-2018 19:46 Тонкая материя Скачать торрент  

Описание фильма ну просто спойлер какой-то, прямо все понятно ))))pb.wtf



    Дорогой пользователь! Огромная просьба, поблагодарите релизера, оцените раздачу и оставьте свои комментарий, если Вы скачали Тонкая материя через торрент бесплатно! Внесите свою лепту в развитие PiratBit!
    Комментировать посты могут только пользователи прошедшие не сложную регистрацию
    Показать сообщения:    

    Тонкая материя через торрент
    Скачать бесплатно Тонкая материя
    Тонкая материя скачать торрент
    Тонкая материя смотреть онлайн
    Cкачать фильм Тонкая материя бесплатно
    Тонкая материя скачать торрент в хорошем качестве
    Тонкая материя смотреть онлайн бесплатно в хорошем качестве


    Вы не можете начинать темы
    Вы не можете отвечать на сообщения
    Вы не можете редактировать свои сообщения
    Вы не можете удалять свои сообщения
    Вы не можете голосовать в опросах
    Вы не можете прикреплять файлы к сообщениям
    Вы можете скачивать файлы