2 сезон

iTunes

MVO

1

2 сезон

iTunes

iTunes

1 сезон

RePack

30

Новинка

ВАЖНО

ИГРА 18+

pack

RePack

MK11
pack

Легкие деньги

RePack

jed

RePack

fifa19

RePack

RDR2

RePack

NEED FOR SPEED™ PAYBACK

4 сезон

9 сезон

Бесстыжие 9 сезон

Все сериалы

все сериалы на PB.wtf

RePack

FAR CRY 5

Anonymous, доброй ночи, мы не успеваем собрать деньги на оплату серверов за декабрь и январь, помогите нам пожалуйста в это трудное время. В качестве благодарности мы отключим Вам всю рекламу на сайте (укажите свой ник в строку Ваше имя)!

×
  
Magnet ссылка

Меган Ливи / Megan Leavey (Габриэла Каупертвэйте) [2017 г., драма, военный, биография, HDRip, Профессиональный многоголосый закадровый "iTunes"] pb.wtf

Меган Ливи через торрент pb.wtf

Размер: 711 MB | Добавлен: 2 года 7 мес. назад | Торрент скачан:62 раза
Скачать  

06-06-2018 18:01 Меган Ливи Скачать торрент  

Меган Ливи / Megan Leavey
Год выпуска: 2017
Страна: США / LD Entertainment, Calle Cruzada
Жанр: драма, военный, биография
Продолжительность: 01:56:42
Перевод: Профессиональный многоголосый закадровый (iTunes)

Режиссер: Габриэла Каупертвэйте

rating

В ролях: Кейт Мара, Джеральдин Джеймс, Брэдли Уитфорд, Том Фелтон, Иди Фалко, Коммон, Уилл Пэттон, Шеннон Тарбет, Рамон Родригес, Кори Джонсон

Описание: Американская военнослужащая Меган Ливи со служебной собакой проходит службу в Ираке, где находят взрывные устройства.

Качество: HDRip
Формат: AVI
Видео кодек: XviD
Аудио кодек: MP3
Видео: 640x272 (2.35:1), 23.976 fps, XviD build 50 ~714 kbps avg, 0.17 bit/pixel
Аудио: 48 kHz, MPEG Layer 3, 2 ch, ~128.00 kbps avg
скриншот   скриншот   скриншот   скриншот  

Общее
Полное имя : F:\ФИЛЬМЫ\Меган Ливи.2017.HDRip.avi
Формат : AVI
Формат/Информация : Audio Video Interleave
Размер файла : 711 Мбайт
Продолжительность : 1 ч. 56 м.
Общий поток : 852 Кбит/сек
Программа кодирования : VirtualDubMod 1.5.10.3 | www.virtualdub-fr.org || (build 2550/release)
Библиотека кодирования : VirtualDubMod build 2550/release

Видео
Идентификатор : 0
Формат : MPEG-4 Visual
Профиль формата : Advanced Simple@L5
Настройки формата : BVOP1
Параметр BVOP формата : 1
Параметр QPel формата : Нет
Параметр GMC формата : Без точки перехода
Параметр матрицы формата : Default (MPEG)
Идентификатор кодека : XVID
Идентификатор кодека/Подсказка : XviD
Продолжительность : 1 ч. 56 м.
Битрейт : 714 Кбит/сек
Ширина : 640 пикселей
Высота : 272 пикселя
Соотношение сторон : 2,35:1
Частота кадров : 23,976 (24000/1001) кадра/сек
Цветовое пространство : YUV
Субдискретизация насыщенности : 4:2:0
Битовая глубина : 8 бит
Тип развёртки : Прогрессивная
Метод сжатия : С потерями
Бит/(Пиксели*Кадры) : 0.171
Размер потока : 596 Мбайт (84%)
Библиотека кодирования : XviD 1.2.1 (UTC 2008-12-04)

Аудио
Идентификатор : 1
Формат : MPEG Audio
Версия формата : Version 1
Профиль формата : Layer 3
Настройки формата : Joint stereo
Идентификатор кодека : 55
Идентификатор кодека/Подсказка : MP3
Продолжительность : 1 ч. 56 м.
Вид битрейта : Постоянный
Битрейт : 128 Кбит/сек
Каналы : 2 канала
Частота : 48,0 КГц
Частота кадров : 41,667 кадра/сек (1152 SPF)
Метод сжатия : С потерями
Размер потока : 107 Мбайт (15%)
Выравнивание : Соединение по промежуткам
Продолжительность промежутка : 42 мс. (1,00 видеокадр)
Время предзагрузки промежутка : 504 мс.
Библиотека кодирования : LAME3.99r
Настройки программы : -m j -V 4 -q 2 -lowpass 17 -b 128

pb.wtf



Скачать Меган Ливи через торрент http://pic1.kartinco.top/images/11/pfgpr.jpg Скачать фильм Меган Ливи через торрент бесплантно в хорошем качестве Описание: Американская военнослужащая Меган Ливи со служебной собакой проходит службу в Ираке, где находят взрывные ... 9.8 10 6
Торрент: Зарегистрирован [2018-06-06 18:01] · скачан: 62 раз
Статус: √ проверено
Размер: 711 MB
Как cкачать? Как скачать Меган Ливи через торрент | UTorrent

% Раздел Тема Автор DL S | L
Фильмы 2017 [DVDrip, WEB-DLRip, HDrip] (DUB, MVO) [ 2.13 GB ] Меган Ливи / Megan Leavey [2017 военный биография BDRip] MVO Twi7ter Скачать
1 | 0
Фильмы 2017 [DVDrip, WEB-DLRip, HDrip] (DUB, MVO) [ 1.41 GB ] Меган Ливи / Megan Leavey [2017 военный биография BDRip] MVO Twi7ter Скачать
1 | 0
Фильмы [HD 720p, 1080p] (Хороший звук DUB, MVO) [ 10.52 GB ] Меган Ливи / Megan Leavey [2017 военный биография BDRip 1080p] MVO bober100 Скачать
1 | 0
Фильмы 2017 [DVDrip, WEB-DLRip, HDrip] (DUB, MVO) [ 1.41 GB ] Меган Ливи / Megan Leavey [2017 военный биография BDRip] MVO bober100 Скачать
1 | 0
Фильмы 2017 [DVDrip, WEB-DLRip, HDrip] (DUB, MVO) [ 2.05 GB ] Меган Ливи / Megan Leavey [2017 военный биография HDRip] MVO bober100 Скачать
1 | 0

28-11-2019 20:33  

Отключить всю рекламу на сайте

    Дорогой пользователь! Огромная просьба, поблагодарите релизера, оцените раздачу и оставьте свои комментарий, если Вы скачали Меган Ливи через торрент бесплатно! Внесите свою лепту в развитие PiratBit!
    Комментировать посты могут только пользователи прошедшие не сложную регистрацию
    Показать сообщения:    

    Меган Ливи через торрент
    Скачать бесплатно Меган Ливи
    Меган Ливи скачать торрент
    Меган Ливи смотреть онлайн
    Cкачать фильм Меган Ливи бесплатно
    Меган Ливи скачать торрент в хорошем качестве
    Меган Ливи смотреть онлайн бесплатно в хорошем качестве


    Вы не можете начинать темы
    Вы не можете отвечать на сообщения
    Вы не можете редактировать свои сообщения
    Вы не можете удалять свои сообщения
    Вы не можете голосовать в опросах
    Вы не можете прикреплять файлы к сообщениям
    Вы можете скачивать файлы