Ссылка на приватное зеркало нашего сайта всего за 1$. Внимание количество ограничено!!!

2 сезон

iTunes

iTunes

1

iTunes

iTunes

iTunes

WEBRip

iTunes

30
pack

Новость дня

ВАЖНО

!!Акция!!

Alien_RageХит недели

RePack

Horizon Zero Dawn

ИГРА 18+

pack

RePack

jed

!!Акция!!

Alien_Rage

RePack

fifa19

RePack

Assassins Creed: Odyssey

RePack

NEED FOR SPEED™ PAYBACK

4 сезон

9 сезон

Бесстыжие 9 сезон

Все сериалы

все сериалы на PB.wtf

RePack

FAR CRY 5
  

Пожиратель детей / Child Eater (Ерлингур Тороддсен) [2016, ужасы, WEB-DL 720p] MVO [КОЛОБОК] pb.wtf

Пожиратель детей через торрент pb.wtf

Размер: 2.84 GB | Добавлен: 2 года 3 мес. назад | Торрент скачан:86 раз
Скачать  

06-06-2018 18:37 Пожиратель детей Скачать торрент  

Пожиратель детей / Child EaterГод выпуска: 2016
Страна: США, Исландия
Жанр: ужасы
Продолжительность: 01:23:41
Перевод: Любительский (многоголосый) | КОЛОБОК
Субтитры: отсутствуют

Режиссер: Ерлингур Тороддсен

rating

В ролях:

Кайт Блисс, Колин П. Критчли, Джейсон Мартин, Джеймс Уилкокс, Мелинда Чилтон, Кара Дюрретт

Описание:

Элен подрабатывает бебиситтером. В одну из ночей она понимает, что некоторые детские страхи вовсе не плод богатого воображения.

Качество: WEB-DL 720p
Формат: MKV

Видео: h.264, 4 468 Кбит/с, 1280x580
Аудио#1: Русский, (AC3, 2 ch, 384 Кбит/с)
скриншот  скриншот  скриншот  

Общее
Уникальный идентификатор : 175669118800876223807249157375100222753 (0x8428A44139E762A08C9BC98509A07D21)
Полное имя : F:\Child Eater.2016.Pk.WEB-DL.72Op.mkv
Формат : Matroska
Версия формата : Version 2
Размер файла : 2,84 Гбайт
Продолжительность : 1 ч. 23 м.
Режим общего битрейта : Переменный
Общий поток : 4854 Кбит/сек
Дата кодирования : UTC 2018-06-05 18:35:36
Программа кодирования : mkvmerge v8.3.0 ('Over the Horizon') 64bit
Библиотека кодирования : libebml v1.3.1 + libmatroska v1.4.2

Видео
Идентификатор : 1
Формат : AVC
Формат/Информация : Advanced Video Codec
Профиль формата : High@L4.1
Параметр CABAC формата : Да
Параметр RefFrames формата : 4 кадра
Идентификатор кодека : V_MPEG4/ISO/AVC
Продолжительность : 1 ч. 23 м.
Вид битрейта : Переменный
Битрейт : 4468 Кбит/сек
Максимальный битрейт : 5000 Кбит/сек
Ширина : 1280 пикселей
Высота : 580 пикселей
Соотношение сторон : 2,2:1
Режим частоты кадров : Постоянный
Частота кадров : 23,976 (24000/1001) кадра/сек
Стандарт вещания : Component
Цветовое пространство : YUV
Субдискретизация насыщенности : 4:2:0
Битовая глубина : 8 бит
Тип развёртки : Прогрессивная
Бит/(Пиксели*Кадры) : 0.246
Размер потока : 2,56 Гбайт (90%)
Default : Да
Forced : Нет
Цветовой диапазон : Limited
Основные цвета : BT.709
Характеристики трансфера : BT.709
Коэффициенты матрицы : BT.709

Аудио
Идентификатор : 2
Формат : AC-3
Формат/Информация : Audio Coding 3
Расширение режима : CM (complete main)
Параметр Endianness формата : Big
Идентификатор кодека : A_AC3
Продолжительность : 1 ч. 23 м.
Вид битрейта : Постоянный
Битрейт : 384 Кбит/сек
Каналы : 2 канала
Расположение каналов : Front: L R
Частота : 48,0 КГц
Частота кадров : 31,250 кадров/сек (1536 spf)
Метод сжатия : С потерями
Размер потока : 230 Мбайт (8%)
Default : Да
Forced : Нет

pb.wtf



Скачать Пожиратель детей через торрент http://img12.lostpic.net/2018/06/06/06ab1dcc8908d5e3d5a0865fb2dcf582.jpg Скачать фильм Пожиратель детей через торрент бесплантно в хорошем качестве Описание: Элен подрабатывает бебиситтером. В одну из ночей она понимает, что некоторые детские страхи вовсе не плод богатого ... 9 10 9
Торрент: Зарегистрирован [2018-06-06 18:37] · скачан: 86 раз
Статус: T временная
Размер: 2.84 GB
Как cкачать? Как скачать Пожиратель детей через торрент | qTorrent

% Раздел Тема Автор DL S | L
T Фильмы (мультфильмы) cо спонсором показа (Новинки AVI/MKV) [ 1.36 GB ] Пожиратель детей / Child Eater [2016 WEB-DLRip] MVO [КОЛОБОК] bober100 Скачать
1 | 0
T Фильмы 2016 (Звук TS, Cam, VO, DVO) [ 1.16 GB ] Пожиратель детей / Child Eater [2016 DVDRip Любительский ] oleg8 Скачать
1 | 0

28-11-2019 20:33  

Отключить всю рекламу на сайте

06-06-2018 18:42 Пожиратель детей Скачать торрент  

Ну лет в 8-10 наверное я бы этого хмыря очканул pb.wtf



    Дорогой пользователь! Огромная просьба, поблагодарите релизера, оцените раздачу и оставьте свои комментарий, если Вы скачали Пожиратель детей через торрент бесплатно! Внесите свою лепту в развитие PiratBit!
    Комментировать посты могут только пользователи прошедшие не сложную регистрацию
    Показать сообщения:    

    Пожиратель детей через торрент
    Скачать бесплатно Пожиратель детей
    Пожиратель детей скачать торрент
    Пожиратель детей смотреть онлайн
    Cкачать фильм Пожиратель детей бесплатно
    Пожиратель детей скачать торрент в хорошем качестве
    Пожиратель детей смотреть онлайн бесплатно в хорошем качестве


    Вы не можете начинать темы
    Вы не можете отвечать на сообщения
    Вы не можете редактировать свои сообщения
    Вы не можете удалять свои сообщения
    Вы не можете голосовать в опросах
    Вы не можете прикреплять файлы к сообщениям
    Вы можете скачивать файлы