Ссылка на приватное зеркало нашего сайта всего за 1$. Внимание количество ограничено!!!

2 сезон

iTunes

1 сезон

1

2 сезон

2 сезон

iTunes

1 сезон

RePack

30

Новинка

ВАЖНО

ИГРА 18+

pack

RePack

MK11
pack

Забери бонус

RePack

jed

!!Акция!!

Alien_Rage

RePack

fifa19

RePack

Assassins Creed: Odyssey

RePack

NEED FOR SPEED™ PAYBACK

4 сезон

9 сезон

Бесстыжие 9 сезон

Все сериалы

все сериалы на PB.wtf

RePack

FAR CRY 5
  

Акт мести / Акты насилия / Acts of Violence (Бретт Доноху) [2018, боевик, драма, BD Remux 1080p] [Расширенная версия] MVO [iTunes] [ITA Transfer] pb.wtf

Акт мести через торрент pb.wtf

Размер: 17.69 GB | Добавлен: 2 года 5 мес. назад | Торрент скачан:58 раз
Скачать  

06-06-2018 22:01 Акт мести Скачать торрент  

Акт мести / Акты насилия / Acts of Violence
| Расширенная версия |

Год выпуска: 2018
Страна: Канада, США
Жанр: боевик, драма
Продолжительность: 01:32:35
Перевод: Профессиональный (многоголосый) | iTunes
Субтитры: отсутствуют

Режиссер: Бретт Доноху

rating

В ролях:


Брюс Уиллис (Detective James Avery), Коул Хаузер (Deklan), Шон Эшмор (Brandon), Эштон Холмс (Roman), Мелисса Болона (Mia), Шон Броснан (Vince), София Буш (Detective Brooke Baker), Майк Эппс (Max Livingston), Тиффани Броувер (Jessa MacGregor), Дженна Б. Келли (Haley), Патрик Ст. Эсприт (Hemland), Ротими (Frank)
Описание:

Чтобы спасти свою невесту, которая попала в лапы торговцев людьми Роман должен вспомнить свои военные навыки и объединить усилия с бывшими сослуживцами и жестким полицейским, расследующим подобные дела.

Качество: BD Remux 1080p | ITA Transfer
Формат: MKV

Видео: MPEG-4 AVC, 1920x1080, 25.0 Mbit/s, 23.976 fps
Аудио#1: 48 kHz, AC3, 5.1, 384 Kbps | iTunes | RUS |
Аудио#2: 48 kHz, DTS-HD MA, 5.1, 1998 Kbps | Оригинал |
ENG |
скриншот   скриншот   скриншот   скриншот   скриншот  

General
Unique ID : 237679052521128605019938452504518954978 (0xB2CF520861DA656E2EA9C938DEF98FE2)
Complete name : C:Video111Acts.Of.Violence.2018.Ext.ITA.BDREMUX.1080p.ExKinoRay.mkv
Format : Matroska
Format version : Version 4 / Version 2
File size : 17.7 GiB
Duration : 1 h 32 min
Overall bit rate mode : Variable
Overall bit rate : 27.4 Mb/s
Movie name : Acts Of Violence 2018 from ExKinoRay
Encoded date : UTC 2018-06-06 21:34:47
Writing application : mkvmerge v22.0.0 ('At The End Of The World') 64-bit
Writing library : libebml v1.3.5 + libmatroska v1.4.8

Video
ID : 1
Format : AVC
Format/Info : Advanced Video Codec
Format profile : High@L4.1
Format settings : CABAC / 4 Ref Frames
Format settings, CABAC : Yes
Format settings, ReFrames : 4 frames
Format settings, GOP : M=3, N=24
Codec ID : V_MPEG4/ISO/AVC
Duration : 1 h 32 min
Bit rate mode : Variable
Bit rate : 25.0 Mb/s
Maximum bit rate : 35.0 Mb/s
Width : 1 920 pixels
Height : 1 080 pixels
Display aspect ratio : 16:9
Frame rate mode : Constant
Frame rate : 23.976 (24000/1001) FPS
Standard : NTSC
Color space : YUV
Chroma subsampling : 4:2:0
Bit depth : 8 bits
Scan type : Progressive
Bits/(Pixel*Frame) : 0.503
Stream size : 16.2 GiB (91%)
Language : English
Default : Yes
Forced : No
Color range : Limited
Color primaries : BT.709
Transfer characteristics : BT.709
Matrix coefficients : BT.709

Audio #1
ID : 2
Format : AC-3
Format/Info : Audio Coding 3
Codec ID : A_AC3
Duration : 1 h 32 min
Bit rate mode : Constant
Bit rate : 384 kb/s
Channel(s) : 6 channels
Channel positions : Front: L C R, Side: L R, LFE
Sampling rate : 48.0 kHz
Frame rate : 31.250 FPS (1536 SPF)
Bit depth : 16 bits
Compression mode : Lossy
Stream size : 254 MiB (1%)
Title : iTunes
Language : Russian
Service kind : Complete Main
Default : Yes
Forced : Yes

Audio #2
ID : 3
Format : DTS
Format/Info : Digital Theater Systems
Format profile : MA / Core
Codec ID : A_DTS
Duration : 1 h 32 min
Bit rate mode : Variable / Constant
Bit rate : 1 998 kb/s / 1 509 kb/s
Channel(s) : 6 channels
Channel positions : Front: L C R, Side: L R, LFE
Sampling rate : 48.0 kHz
Frame rate : 93.750 FPS (512 SPF)
Bit depth : 16 bits
Compression mode : Lossless / Lossy
Stream size : 1.29 GiB (7%)
Title : Original
Language : English
Default : No
Forced : No

Menu
00:00:00.000 : en:00:00:00.000
00:05:06.765 : en:00:05:06.765
00:10:30.463 : en:00:10:30.463
00:14:41.380 : en:00:14:41.380
00:19:55.569 : en:00:19:55.569
00:26:09.067 : en:00:26:09.067
00:34:49.421 : en:00:34:49.421
00:38:44.113 : en:00:38:44.113
00:42:26.127 : en:00:42:26.127
00:49:25.296 : en:00:49:25.296
00:54:08.245 : en:00:54:08.245
01:00:57.946 : en:01:00:57.946
01:07:16.407 : en:01:07:16.407
01:11:36.709 : en:01:11:36.709
01:18:07.975 : en:01:18:07.975
01:20:39.043 : en:01:20:39.043
pb.wtf



Скачать Акт мести через торрент http://pic1.kartinco.top/images/11/1zer4.jpg Скачать фильм Акт мести через торрент бесплантно в хорошем качестве Описание:Чтобы спасти свою невесту, которая попала в лапы торговцев людьми Роман должен вспомнить свои военные навыки и объединить усилия с ... 10 10 3
Info! Золотая раздача, скачанное не засчитывается.
Торрент: Зарегистрирован [2018-06-06 22:01] · скачан: 58 раз
Статус: √ проверено
Размер: 17.69 GB
Как cкачать? Как скачать Акт мести через торрент | qTorrent

% Раздел Тема Автор DL S | L
Фильмы 2018 [DVDrip, WEB-DLRip, HDrip] (DUB, MVO) [ 1.42 GB ] Акт мести / Акты насилия / Acts of Violence [2018 BDRip] MVO Twi7ter Скачать
2 | 0
Фильмы 2018 [DVDrip, WEB-DLRip, HDrip] (DUB, MVO) [ 2.48 GB ] Акт мести / Акты насилия / Acts of Violence [2018 BDRip-AVC] MVO [Расширенная версия] - ExKinoRay Enigma2010 Скачать
1 | 0
Фильмы [HD 720p, 1080p] (Хороший звук DUB, MVO) [ 4.66 GB ] Акт мести / Акты насилия / Acts of Violence [2018 BDRip 720p] [Расширенная версия] MVO [ITA Transfer] bober100 Скачать
1 | 0
Фильмы 2018 [DVDrip, WEB-DLRip, HDrip] (DUB, MVO) [ 1.42 GB ] Акт мести / Акты насилия / Acts of Violence [2018 BDRip] [Расширенная версия] MVO bober100 Скачать
1 | 0
T Фильмы 2018 [DVDrip, WEB-DLRip, HDrip] (DUB, MVO) [ 2.33 GB ] Акт мести / Акты насилия / Acts of Violence [2018 BDRip-AVC] MVO [HDrezka Studio] - ExKinoRay Enigma2010 Скачать
1 | 0

28-11-2019 20:33  

Отключить всю рекламу на сайте

    Дорогой пользователь! Огромная просьба, поблагодарите релизера, оцените раздачу и оставьте свои комментарий, если Вы скачали Акт мести через торрент бесплатно! Внесите свою лепту в развитие PiratBit!
    Комментировать посты могут только пользователи прошедшие не сложную регистрацию
    Показать сообщения:    

    Акт мести через торрент
    Скачать бесплатно Акт мести
    Акт мести скачать торрент
    Акт мести смотреть онлайн
    Cкачать фильм Акт мести бесплатно
    Акт мести скачать торрент в хорошем качестве
    Акт мести смотреть онлайн бесплатно в хорошем качестве


    Вы не можете начинать темы
    Вы не можете отвечать на сообщения
    Вы не можете редактировать свои сообщения
    Вы не можете удалять свои сообщения
    Вы не можете голосовать в опросах
    Вы не можете прикреплять файлы к сообщениям
    Вы можете скачивать файлы