Ссылка на приватное зеркало нашего сайта всего за 1$. Внимание количество ограничено!!!

2 сезон

iTunes

1 сезон

1

2 сезон

2 сезон

iTunes

1 сезон

RePack

30

Ultimate

ВАЖНО

ИГРА 18+

pack

RePack

MK11
pack

Забери бонус

RePack

jed

!!Акция!!

Alien_Rage

RePack

fifa19

RePack

Assassins Creed: Odyssey

RePack

NEED FOR SPEED™ PAYBACK

4 сезон

9 сезон

Бесстыжие 9 сезон

Все сериалы

все сериалы на PB.wtf

RePack

FAR CRY 5
  

Призрачная нить / Phantom Thread (Пол Томас Андерсон) [2017, драма, BD Remux 1080p] DUB [Лицензия] pb.wtf

Призрачная нить через торрент pb.wtf

Размер: 33.59 GB | Добавлен: 2 года 5 мес. назад | Торрент скачан:8 раз
Скачать  

07-06-2018 12:46 Призрачная нить Скачать торрент  

Призрачная нить / Phantom Thread
Год выпуска: 2017
Страна: США
Жанр: драма
Продолжительность: 02:10:31
Перевод: Дублированный | Лицензия
Субтитры: Русские (full), английские

Режиссер: Пол Томас Андерсон

rating

В ролях:

Вики Крипс, Дэниэл Дэй-Льюис, Лесли Мэнвилл, Сью Кларк, Джоан Браун, Харриет Лейч, Дина Николсон, Джули Дак, Мэриэнн Фрост, Элли Бэнкс

Описание:

В Лондоне 1950-х годов знаменитый кутюрье Рейнольдс Вудкок создает неповторимые образы для королевской семьи, звезд кино, богатых наследниц и светских львиц. Жизнь гения радикально меняется с появлением молодой своенравной Альмы, которая становится его музой.

Качество: BD Remux 1080p
Формат: MKV

Видео: MPEG-4 AVC, 1920x1080, 29.4 Mbit/s, 23.976 fps
Аудио#1: 48 kHz, DTS, 5.1, 768 Kbps | Лицензия | RUS |
Аудио#2: 48 kHz, AC3, 5.1, 448 Kbps | Лицензия | RUS |
Аудио#3: 48 kHz, DTS-HD MA, 7.1, 6214 Kbps | Оригинал | ENG |
скриншот   скриншот   скриншот  скриншот  скриншот  

General
Unique ID : 321140141930038872140331174622656661892 (0xF19957710D3FCD2B308FF4E45FC30984)
Complete name : C:Video111Phantom.Thread.2017.Lic.BDREMUX.1080p.ExKinoRay.mkv
Format : Matroska
Format version : Version 4 / Version 2
File size : 33.6 GiB
Duration : 2 h 10 min
Overall bit rate mode : Variable
Overall bit rate : 36.8 Mb/s
Movie name : Phantom Thread 2017 from ExKinoRay
Encoded date : UTC 2018-06-07 11:46:17
Writing application : mkvmerge v22.0.0 ('At The End Of The World') 64-bit
Writing library : libebml v1.3.5 + libmatroska v1.4.8

Video
ID : 1
Format : AVC
Format/Info : Advanced Video Codec
Format profile : High@L4.1
Format settings : CABAC / 4 Ref Frames
Format settings, CABAC : Yes
Format settings, ReFrames : 4 frames
Codec ID : V_MPEG4/ISO/AVC
Duration : 2 h 10 min
Bit rate mode : Variable
Bit rate : 29.4 Mb/s
Maximum bit rate : 33.0 Mb/s
Width : 1 920 pixels
Height : 1 080 pixels
Display aspect ratio : 16:9
Frame rate mode : Constant
Frame rate : 23.976 (24000/1001) FPS
Color space : YUV
Chroma subsampling : 4:2:0
Bit depth : 8 bits
Scan type : Progressive
Bits/(Pixel*Frame) : 0.592
Stream size : 26.8 GiB (80%)
Language : English
Default : Yes
Forced : No

Audio #1
ID : 2
Format : DTS
Format/Info : Digital Theater Systems
Codec ID : A_DTS
Duration : 2 h 10 min
Bit rate mode : Constant
Bit rate : 768 kb/s
Channel(s) : 6 channels
Channel positions : Front: L C R, Side: L R, LFE
Sampling rate : 48.0 kHz
Frame rate : 93.750 FPS (512 SPF)
Bit depth : 24 bits
Compression mode : Lossy
Stream size : 717 MiB (2%)
Title : Dub [License]
Language : Russian
Default : Yes
Forced : Yes

Audio #2
ID : 3
Format : AC-3
Format/Info : Audio Coding 3
Codec ID : A_AC3
Duration : 2 h 10 min
Bit rate mode : Constant
Bit rate : 448 kb/s
Channel(s) : 6 channels
Channel positions : Front: L C R, Side: L R, LFE
Sampling rate : 48.0 kHz
Frame rate : 31.250 FPS (1536 SPF)
Bit depth : 16 bits
Compression mode : Lossy
Stream size : 418 MiB (1%)
Title : Dub [License]
Language : Russian
Service kind : Complete Main
Default : No
Forced : No

Audio #3
ID : 4
Format : DTS
Format/Info : Digital Theater Systems
Format profile : X / MA / Core
Codec ID : A_DTS
Duration : 2 h 10 min
Bit rate mode : Variable / Variable / Constant
Bit rate : 6 214 kb/s / 6 214 kb/s / 1 509 kb/s
Channel(s) : Object Based / 8 channels / 6 channels
Channel positions : Object Based / Front: L C R, Side: L R, Back: L R, LFE / Front: L C R, Side: L R, LFE
Sampling rate : / 48.0 kHz / 48.0 kHz
Frame rate : 93.750 FPS (512 SPF)
Bit depth : / 24 bits / 24 bits
Compression mode : / Lossless / Lossy
Stream size : 5.67 GiB (17%)
Title : Original
Language : English
Default : No
Forced : No

Text #1
ID : 5
Format : UTF-8
Codec ID : S_TEXT/UTF8
Codec ID/Info : UTF-8 Plain Text
Duration : 2 h 9 min
Bit rate : 0 b/s
Count of elements : 3
Stream size : 43.0 Bytes (0%)
Title : Forced
Language : Russian
Default : Yes
Forced : Yes

Text #2
ID : 6
Format : UTF-8
Codec ID : S_TEXT/UTF8
Codec ID/Info : UTF-8 Plain Text
Duration : 2 h 9 min
Bit rate : 46 b/s
Count of elements : 1235
Stream size : 44.3 KiB (0%)
Title : Full [License]
Language : Russian
Default : No
Forced : No

Text #3
ID : 7
Format : UTF-8
Codec ID : S_TEXT/UTF8
Codec ID/Info : UTF-8 Plain Text
Duration : 2 h 2 min
Bit rate : 43 b/s
Count of elements : 1275
Stream size : 38.7 KiB (0%)
Title : Full
Language : English
Default : No
Forced : No

Menu
00:00:00.000 : en:Chapter 1
00:06:09.660 : en:Chapter 2
00:11:29.689 : en:Chapter 3
00:16:16.183 : en:Chapter 4
00:24:24.379 : en:Chapter 5
00:31:26.467 : en:Chapter 6
00:36:21.637 : en:Chapter 7
00:40:13.828 : en:Chapter 8
00:44:48.352 : en:Chapter 9
00:48:09.678 : en:Chapter 10
00:56:54.702 : en:Chapter 11
01:02:38.671 : en:Chapter 12
01:11:13.978 : en:Chapter 13
01:21:19.416 : en:Chapter 14
01:25:56.693 : en:Chapter 15
01:35:07.827 : en:Chapter 16
01:37:44.900 : en:Chapter 17
01:42:28.058 : en:Chapter 18
01:48:40.055 : en:Chapter 19
01:59:58.774 : en:Chapter 20

pb.wtf



Скачать Призрачная нить через торрент http://pic1.kartinco.top/images/11/7nrcu.jpg Скачать фильм Призрачная нить через торрент бесплантно в хорошем качестве Описание: В Лондоне 1950-х годов знаменитый кутюрье Рейнольдс Вудкок создает неповторимые образы для королевской семьи, звезд кино, богатых ... 10 10 3
Info! Золотая раздача, скачанное не засчитывается.
Торрент: Зарегистрирован [2018-06-07 12:46] · скачан: 8 раз
Статус: √ проверено
Размер: 33.59 GB
Как cкачать? Как скачать Призрачная нить через торрент | qTorrent

% Раздел Тема Автор DL S | L
Ultra HD (UHD: 2K, 4K, 8K) — видео сверхвысокой чёткости [ 89.76 GB ] Призрачная нить / Phantom Thread [2017 UHD Blu-ray 2160p] - [] sheker187 Скачать
1 | 0
Ultra HD (UHD: 2K, 4K, 8K) — видео сверхвысокой чёткости [ 78.31 GB ] Призрачная нить / Phantom Thread [2017 UHD BDRemux 2160p] DUB [] bober100 Скачать
1 | 1
Фильмы 2017 [DVDrip, WEB-DLRip, HDrip] (DUB, MVO) [ 2.18 GB ] Призрачная нить / Phantom Thread [2017 BDRip] - [] Twi7ter Скачать
2 | 0
Фильмы 2017 [DVDrip, WEB-DLRip, HDrip] (DUB, MVO) [ 1.46 GB ] Призрачная нить / Phantom Thread [2017 BDRip] - [] Twi7ter Скачать
1 | 0
Фильмы [HD 720p, 1080p] (Хороший звук DUB, MVO) [ 12.47 GB ] Призрачная нить / Phantom Thread [2017 BDRip 1080p] bober100 Скачать
2 | 0
Фильмы (Blu-ray, BD-Remux, HDDVD) [ 44.71 GB ] Призрачная нить / Phantom Thread [2017 Blu-Ray 1080p] DUB [] bober100 Скачать
1 | 0
Фильмы 2017 [DVDrip, WEB-DLRip, HDrip] (DUB, MVO) [ 1.46 GB ] Призрачная нить / Phantom Thread [2017 BDRip] DUB [ BD EUR] bober100 Скачать
1 | 0

28-11-2019 20:33  

Отключить всю рекламу на сайте

    Дорогой пользователь! Огромная просьба, поблагодарите релизера, оцените раздачу и оставьте свои комментарий, если Вы скачали Призрачная нить через торрент бесплатно! Внесите свою лепту в развитие PiratBit!
    Комментировать посты могут только пользователи прошедшие не сложную регистрацию
    Показать сообщения:    

    Призрачная нить через торрент
    Скачать бесплатно Призрачная нить
    Призрачная нить скачать торрент
    Призрачная нить смотреть онлайн
    Cкачать фильм Призрачная нить бесплатно
    Призрачная нить скачать торрент в хорошем качестве
    Призрачная нить смотреть онлайн бесплатно в хорошем качестве


    Вы не можете начинать темы
    Вы не можете отвечать на сообщения
    Вы не можете редактировать свои сообщения
    Вы не можете удалять свои сообщения
    Вы не можете голосовать в опросах
    Вы не можете прикреплять файлы к сообщениям
    Вы можете скачивать файлы