Лицензия

MVO

1

1 сезон

Лицензия

Лицензия

13

MVO

1 сезон

Deluxe Edition

pack

Рекомендуем

30

Repack

ВАЖНО

ВАЖНО

Ghostwire

RePack

jed

RePack

fifa19

RePack

RDR2

RePack

NEED FOR SPEED™ PAYBACK

RePack

Кинопоиск HD

 Острые козырьки 6 сезон

6 сезон

FAR CRY 6

RePack

Лицензия

MVO

1

1 сезон

1 сезон

Лицензия

  

Призрачная нить / Phantom Thread (Пол Томас Андерсон) [2017, драма, BDRip 1080p] DUB [iTunes]

Призрачная нить через торрент pb.wtf

Размер: 12.47 GB | Добавлен: 4 года 3 мес. назад | Торрент скачан:137 раз
Смотреть онлайн Призрачная нить | Скачать   

07-06-2018 13:10 Призрачная нить Скачать торрент  

Призрачная нить / Phantom Thread
Год выпуска: 2017
Страна: США
Жанр: драма
Продолжительность: 02:10:07
Перевод: Дублированный | iTunes
Субтитры: Русские (full), английские

Режиссер: Пол Томас Андерсон

rating

В ролях:

Вики Крипс, Дэниэл Дэй-Льюис, Лесли Мэнвилл, Сью Кларк, Джоан Браун, Харриет Лейч, Дина Николсон, Джули Дак, Мэриэнн Фрост, Элли Бэнкс

Описание:

В Лондоне 1950-х годов знаменитый кутюрье Рейнольдс Вудкок создает неповторимые образы для королевской семьи, звезд кино, богатых наследниц и светских львиц. Жизнь гения радикально меняется с появлением молодой своенравной Альмы, которая становится его музой.

Качество: BDRip 1080p
Формат: MKV

Видео: MPEG-4 AVC, 1920x1036, 11.0 Mbit/s, 23.976 fps
Аудио#1: DTS, 5.1, 768 Kbps | Лицензия | RUS |
Аудио#2: AC3, 5.1, 448 Kbps | Лицензия | RUS |
Аудио#3: 48 kHz, DTS, 5.1, 1510 Kbps | Оригинал | ENG |
скриншот   скриншот   скриншот   скриншот   скриншот  

General
Unique ID : 292941779762791140843535303648129869095 (0xDC6288D8F8BFB3B94A1862FCAE8C6527)
Complete name : C:Video111Phantom.Thread.2017.Lic.BDRip.1080p.ExKinoRay.mkv
Format : Matroska
Format version : Version 4 / Version 2
File size : 12.5 GiB
Duration : 2 h 10 min
Overall bit rate : 13.7 Mb/s
Movie name : Phantom Thread 2017 from ExKinoRay
Encoded date : UTC 2018-06-07 11:08:17
Writing application : mkvmerge v22.0.0 ('At The End Of The World') 64-bit
Writing library : libebml v1.3.5 + libmatroska v1.4.8

Video
ID : 1
Format : AVC
Format/Info : Advanced Video Codec
Format profile : [email protected]
Format settings : CABAC / 4 Ref Frames
Format settings, CABAC : Yes
Format settings, ReFrames : 4 frames
Codec ID : V_MPEG4/ISO/AVC
Duration : 2 h 10 min
Bit rate : 11.0 Mb/s
Width : 1 920 pixels
Height : 1 036 pixels
Display aspect ratio : 1.85:1
Frame rate mode : Constant
Frame rate : 23.976 (24000/1001) FPS
Color space : YUV
Chroma subsampling : 4:2:0
Bit depth : 8 bits
Scan type : Progressive
Bits/(Pixel*Frame) : 0.231
Stream size : 9.99 GiB (80%)
Writing library : x264 core 155 r2901 7d0ff22
Encoding settings : cabac=1 / ref=4 / deblock=1:0:0 / analyse=0x3:0x113 / me=umh / subme=10 / psy=1 / psy_rd=1.05:0.10 / mixed_ref=1 / me_range=48 / chroma_me=1 / trellis=2 / 8x8dct=1 / cqm=0 / deadzone=21,11 / fast_pskip=0 / chroma_qp_offset=-2 / threads=12 / lookahead_threads=1 / sliced_threads=0 / nr=0 / decimate=1 / interlaced=0 / bluray_compat=0 / constrained_intra=0 / bframes=6 / b_pyramid=2 / b_adapt=2 / b_bias=0 / direct=3 / weightb=1 / open_gop=0 / weightp=2 / keyint=250 / keyint_min=23 / scenecut=40 / intra_refresh=0 / rc=2pass / mbtree=0 / bitrate=11000 / ratetol=2.0 / qcomp=0.70 / qpmin=0 / qpmax=69 / qpstep=4 / cplxblur=20.0 / qblur=0.5 / ip_ratio=1.40 / pb_ratio=1.30 / aq=2:1.00
Language : English
Default : Yes
Forced : No

Audio #1
ID : 2
Format : DTS
Format/Info : Digital Theater Systems
Codec ID : A_DTS
Duration : 2 h 10 min
Bit rate mode : Constant
Bit rate : 768 kb/s
Channel(s) : 6 channels
Channel positions : Front: L C R, Side: L R, LFE
Sampling rate : 48.0 kHz
Frame rate : 93.750 FPS (512 SPF)
Bit depth : 24 bits
Compression mode : Lossy
Stream size : 715 MiB (6%)
Title : Dub [license]
Language : Russian
Default : Yes
Forced : Yes

Audio #2
ID : 3
Format : AC-3
Format/Info : Audio Coding 3
Codec ID : A_AC3
Duration : 2 h 10 min
Bit rate mode : Constant
Bit rate : 448 kb/s
Channel(s) : 6 channels
Channel positions : Front: L C R, Side: L R, LFE
Sampling rate : 48.0 kHz
Frame rate : 31.250 FPS (1536 SPF)
Bit depth : 16 bits
Compression mode : Lossy
Stream size : 417 MiB (3%)
Title : Dub [license]
Language : Russian
Service kind : Complete Main
Default : No
Forced : No

Audio #3
ID : 4
Format : DTS
Format/Info : Digital Theater Systems
Codec ID : A_DTS
Duration : 2 h 10 min
Bit rate mode : Constant
Bit rate : 1 509 kb/s
Channel(s) : 6 channels
Channel positions : Front: L C R, Side: L R, LFE
Sampling rate : 48.0 kHz
Frame rate : 93.750 FPS (512 SPF)
Bit depth : 24 bits
Compression mode : Lossy
Stream size : 1.37 GiB (11%)
Title : Original
Language : English
Default : No
Forced : No

Text #1
ID : 5
Format : UTF-8
Codec ID : S_TEXT/UTF8
Codec ID/Info : UTF-8 Plain Text
Duration : 2 h 9 min
Bit rate : 0 b/s
Count of elements : 3
Stream size : 43.0 Bytes (0%)
Title : forced
Language : Russian
Default : Yes
Forced : Yes

Text #2
ID : 6
Format : UTF-8
Codec ID : S_TEXT/UTF8
Codec ID/Info : UTF-8 Plain Text
Duration : 2 h 9 min
Bit rate : 46 b/s
Count of elements : 1235
Stream size : 44.3 KiB (0%)
Title : full [license]
Language : Russian
Default : No
Forced : No

Text #3
ID : 7
Format : UTF-8
Codec ID : S_TEXT/UTF8
Codec ID/Info : UTF-8 Plain Text
Duration : 2 h 2 min
Bit rate : 43 b/s
Count of elements : 1275
Stream size : 38.7 KiB (0%)
Title : Full
Language : English
Default : No
Forced : No

Menu
00:00:00.000 : en:00:00:00.000
00:05:45.637 : en:00:05:45.637
00:11:05.665 : en:00:11:05.665
00:15:52.160 : en:00:15:52.160
00:24:00.356 : en:00:24:00.356
00:31:02.444 : en:00:31:02.444
00:35:57.614 : en:00:35:57.614
00:39:49.804 : en:00:39:49.804
00:44:24.328 : en:00:44:24.328
00:47:45.654 : en:00:47:45.654
00:56:30.679 : en:00:56:30.679
01:02:14.648 : en:01:02:14.648
01:10:49.954 : en:01:10:49.954
01:20:55.392 : en:01:20:55.392
01:25:32.669 : en:01:25:32.669
01:34:43.803 : en:01:34:43.803
01:37:20.877 : en:01:37:20.877
01:42:04.035 : en:01:42:04.035
01:48:16.031 : en:01:48:16.031
01:59:34.751 : en:01:59:34.751




Скачать Призрачная нить через торрент https://pic1.kartinco.top/images/11/7nrcu.jpg Скачать, смотреть онлайн Призрачная нить бесплантно в хорошем качестве Описание: В Лондоне 1950-х годов знаменитый кутюрье Рейнольдс Вудкок создает неповторимые образы для королевской семьи, звезд кино, богатых ... 7.3 10 3
Info! Золотая раздача, скачанное не засчитывается.
Торрент: Зарегистрирован [2018-06-07 13:10] · скачан: 137 раз
Статус: √ проверено
Размер: 12.47 GB
Как cкачать? Как скачать Призрачная нить через торрент | UTorrent

% Раздел Тема Автор DL S | L
Ultra HD (UHD: 2K, 4K, 8K) [ 89.76 GB ] Призрачная нить / Phantom Thread | Лицензия | 2160p sheker187 Скачать
1 | 0
Ultra HD (UHD: 2K, 4K, 8K) [ 78.31 GB ] Призрачная нить / Phantom Thread | Лицензия | 2160p bober100 Скачать
1 | 0
Фильмы 2017 [DVDrip, WEB-DLRip, HDrip] (DUB, MVO) [ 2.18 GB ] Призрачная нить / Phantom Thread | Лицензия | BDRip от Twi7ter Twi7ter Скачать
1 | 0
Фильмы 2017 [DVDrip, WEB-DLRip, HDrip] (DUB, MVO) [ 1.46 GB ] Призрачная нить / Phantom Thread | Лицензия | BDRip от Twi7ter Twi7ter Скачать
1 | 0
Фильмы (Blu-ray, BD-Remux, HDDVD) [ 44.71 GB ] Призрачная нить / Phantom Thread | Лицензия | 1080p bober100 Скачать
1 | 0
Фильмы (Blu-ray, BD-Remux, HDDVD) [ 33.59 GB ] Призрачная нить / Phantom Thread | Лицензия | BD Remux 1080p bober100 Скачать
1 | 0
Фильмы 2017 [DVDrip, WEB-DLRip, HDrip] (DUB, MVO) [ 1.46 GB ] Призрачная нить / Phantom Thread | Лицензия BD EUR | BDRip bober100 Скачать
1 | 0

28-11-2019 20:33  

Отключить вcю реклaмy на сайте

    Дорогой пользователь! Огромная просьба, поблагодарите релизера, оцените раздачу и оставьте свои комментарий, если Вы скачали Призрачная нить через торрент бесплатно!!
    Комментировать посты могут только пользователи прошедшие не сложную регистрацию
    Показать сообщения:    


    Призрачная нить через торрент
    Скачать бесплатно Призрачная нить
    Призрачная нить скачать торрент
    Призрачная нить смотреть онлайн
    Cкачать фильм Призрачная нить бесплатно
    Призрачная нить скачать торрент в хорошем качестве
    Призрачная нить смотреть онлайн бесплатно в хорошем качестве
    Вы не можете начинать темы
    Вы не можете отвечать на сообщения
    Вы не можете редактировать свои сообщения
    Вы не можете удалять свои сообщения
    Вы не можете голосовать в опросах
    Вы не можете прикреплять файлы к сообщениям
    Вы можете скачивать файлы