Всегда рабочее зеркало без VPN и Proxy просто перед .vidak.icu напиши любое слово или цифру, Пример http://qrfc.vidak.icu

MVO

2 сезон

1 сезон

1

1 сезон

iTunes

2 сезон

13

1 сезон

Распродажа

pack

Рекомендуем

Пиратка

30

ВАЖНО

RePack

MK11

RePack

jed

RePack

fifa19

RePack

RDR2

RePack

NEED FOR SPEED™ PAYBACK

Кинопоиск HD

6 сезон

 Острые козырьки 6 сезон

Все сериалы

все сериалы на PB.wtf

RePack

FAR CRY 5

Anonymous, нам критически не хватает 5601 руб. на оплату серверов и переферии за Апрель, помоги нам пожалуйста, вся надежда только на тебя. В благодарность мы отключим тебе всю рекламу на сайте!

×
  
Magnet ссылка

Кинг Конг / King Kong (Питер Джексон) [2005 г., боевик, драма, мелодрама, приключения, фэнтези, BDRip 1080p, HEVC (10bit),Дубляж] [Расширенная версия / Extended Cut] pb.wtf

Кинг Конг через торрент pb.wtf

Размер: 8.64 GB | Добавлен: 3 года 11 мес. назад | Торрент скачан:100 раз
Смотреть онлайн Кинг Конг | Скачать    Ребята, помогите собрать деньги на оплату серверов!!!

07-06-2018 17:46 Кинг Конг Скачать торрент  

Кинг Конг [Расширенная версия] / King Kong [Extended Cut]
Год выпуска: 2005
Страна: Новая Зеландия, США, Германия
Жанр: боевик, драма, мелодрама, приключения, фэнтези
Продолжительность: 03:20:07
Перевод: Дубляж
Субтитры: Русские, Английские

Режиссер: Питер Джексон

rating

В ролях: Наоми Уоттс, Джек Блэк, Эдриан Броуди, Томас Кречманн, Колин Хэнкс, Энди Серкис, Эван Парк, Джейми Белл, Лобо Чан, Джон Самнер

Описание: В 1930-м году съемочная группа под предводительством режиссера-неудачника Карла Дэнхэма отправляется на загадочный Остров Черепа неподалеку от Суматры, чтобы изучать легенды о гигантской горилле по кличке Конг. По прибытии на место они обнаруживают, что Кинг Конг и правда существует.
Доп. информация: -
H.265/HEVC (High Efficiency Video Coding) - это новый стандарт кодирования видео.
- Стандарт H.265/HEVC является логическим продолжением стандарта
H.264/AVC (Advanced Video Coding), и характеризуется более эффективными
алгоритмами сжатия, а также поддержкой высокого разрешения вплоть до 8K UHD
(8192x4320). Первая версия стандарта H.265 была опубликована в начале 2013 года.
- Рипы в фомате HEVC поддерживается не всеми аппаратными проигрывателями.
- Для корректного воспроизведения может потребоваться обновление ПО.
- Владельцам несовместимого железа просьба не беспокоить,
есть альтернативные релизы.
Качество: BDRip 1080p
Формат: MKV
Видео кодек: H.265
Аудио кодек: AC3
Видео: 1920x816, ~5285 kbps
Аудио#1: AC3, 6 ch, 448 kbps (Дубляж)
Аудио#2: AC3, 6 ch, 448 kbps (Оригинал)
Релиз от: HANNIBAL
Общее
Уникальный идентификатор : 170575035900625796784878013519630820559 (0x80538E93A8A65550B4DBF7783655E4CF)
Полное имя : J:\ФИЛЬМЫ\Кинг Конг [Расширенная версия] BDRip 1080p [HEVC] 10bit.mkv
Формат : Matroska
Версия формата : Version 4 / Version 2
Размер файла : 8,64 Гбайт
Продолжительность : 3 ч. 20 м.
Общий поток : 6183 Кбит/сек
Название фильма : KING_KONG.Title0
Дата кодирования : UTC 2017-11-21 14:36:02
Программа кодирования : mkvmerge v9.5.0 ('Quiet Fire') 64bit
Библиотека кодирования : libebml v1.3.4 + libmatroska v1.4.5
Обложка : Yes
Attachments : cover.jpg

Видео
Идентификатор : 1
Формат : HEVC
Формат/Информация : High Efficiency Video Coding
Профиль формата : Main 10@L4@Main
Идентификатор кодека : V_MPEGH/ISO/HEVC
Продолжительность : 3 ч. 20 м.
Битрейт : 5285 Кбит/сек
Ширина : 1920 пикселей
Высота : 816 пикселей
Соотношение сторон : 2,35:1
Режим частоты кадров : Постоянный
Частота кадров : 23,976 (24000/1001) кадра/сек
Цветовое пространство : YUV
Субдискретизация насыщенности : 4:2:0
Битовая глубина : 10 бит
Бит/(Пиксели*Кадры) : 0.141
Размер потока : 7,39 Гбайт (85%)
Default : Да
Forced : Нет
Цветовой диапазон : Limited
Основные цвета : BT.709
Характеристики трансфера : BT.709
Коэффициенты матрицы : BT.709

Аудио #1
Идентификатор : 2
Формат : AC-3
Формат/Информация : Audio Coding 3
Идентификатор кодека : A_AC3
Продолжительность : 3 ч. 20 м.
Вид битрейта : Постоянный
Битрейт : 448 Кбит/сек
Каналы : 6 каналов
Расположение каналов : Front: L C R, Side: L R, LFE
Частота : 48,0 КГц
Частота кадров : 31,250 кадров/сек (1536 SPF)
Битовая глубина : 16 бит
Метод сжатия : С потерями
Размер потока : 641 Мбайт (7%)
Заголовок : Дубляж + псевдодубляж
Язык : Russian
ServiceKind/String : Complete Main
Default : Да
Forced : Да

Аудио #2
Идентификатор : 3
Формат : AC-3
Формат/Информация : Audio Coding 3
Идентификатор кодека : A_AC3
Продолжительность : 3 ч. 20 м.
Вид битрейта : Постоянный
Битрейт : 448 Кбит/сек
Каналы : 6 каналов
Расположение каналов : Front: L C R, Side: L R, LFE
Частота : 48,0 КГц
Частота кадров : 31,250 кадров/сек (1536 SPF)
Битовая глубина : 16 бит
Метод сжатия : С потерями
Размер потока : 641 Мбайт (7%)
Язык : English
ServiceKind/String : Complete Main
Default : Нет
Forced : Нет

Текст #1
Идентификатор : 4
Формат : UTF-8
Идентификатор кодека : S_TEXT/UTF8
Идентификатор кодека/Информация : UTF-8 Plain Text
Продолжительность : 3 ч. 8 м.
Битрейт : 43 бит/сек
ElementCount : 1236
Размер потока : 60,6 Кбайт (0%)
Язык : Russian
Default : Да
Forced : Нет

Текст #2
Идентификатор : 5
Формат : UTF-8
Идентификатор кодека : S_TEXT/UTF8
Идентификатор кодека/Информация : UTF-8 Plain Text
Продолжительность : 3 ч. 8 м.
Битрейт : 26 бит/сек
ElementCount : 1278
Размер потока : 37,1 Кбайт (0%)
Язык : English
Default : Нет
Forced : Нет

Меню
00:00:00.000 : en:(01)00:00:00:000
00:03:02.807 : en:(02)00:03:02:807
00:04:20.802 : en:(03)00:04:20:802
00:06:43.945 : en:(04)00:06:43:945
00:10:29.670 : en:(05)00:10:29:670
00:12:33.210 : en:(06)00:12:33:210
00:14:18.399 : en:(07)00:14:18:399
00:17:40.893 : en:(08)00:17:40:893
00:20:25.849 : en:(09)00:20:25:849
00:24:13.285 : en:(10)00:24:13:285
00:25:55.637 : en:(11)00:25:55:637
00:26:13.363 : en:(12)00:26:13:363
00:28:00.637 : en:(13)00:28:00:637
00:30:29.536 : en:(14)00:30:29:536
00:31:07.448 : en:(15)00:31:07:448
00:33:07.360 : en:(16)00:33:07:360
00:34:14.510 : en:(17)00:34:14:510
00:36:55.880 : en:(18)00:36:55:880
00:39:45.674 : en:(19)00:39:45:674
00:41:07.506 : en:(20)00:41:07:506
00:42:31.715 : en:(21)00:42:31:715
00:43:45.873 : en:(22)00:43:45:873
00:52:20.178 : en:(23)00:52:20:178
00:55:49.929 : en:(24)00:55:49:929
01:02:07.265 : en:(25)01:02:07:265
01:07:32.798 : en:(26)01:07:32:798
01:12:39.480 : en:(27)01:12:39:480
01:14:14.658 : en:(28)01:14:14:658
01:16:58.947 : en:(29)01:16:58:947
01:20:23.485 : en:(30)01:20:23:485
01:22:42.165 : en:(31)01:22:42:165
01:29:20.521 : en:(32)01:29:20:521
01:30:16.577 : en:(33)01:30:16:577
01:32:09.815 : en:(34)01:32:09:815
01:38:55.346 : en:(35)01:38:55:346
01:44:44.111 : en:(36)01:44:44:111
01:46:17.954 : en:(37)01:46:17:954
01:50:02.012 : en:(38)01:50:02:012
02:01:41.252 : en:(39)02:01:41:252
02:09:08.657 : en:(40)02:09:08:657
02:13:18.990 : en:(41)02:13:18:990
02:15:51.476 : en:(42)02:15:51:476
02:21:36.029 : en:(43)02:21:36:029
02:30:16.507 : en:(44)02:30:16:507
02:32:11.705 : en:(45)02:32:11:705
02:34:02.149 : en:(46)02:34:02:149
02:43:14.784 : en:(47)02:43:14:784
02:47:50.560 : en:(48)02:47:50:560
02:52:23.875 : en:(49)02:52:23:875
02:54:05.268 : en:(50)02:54:05:268
02:56:23.989 : en:(51)02:56:23:989
03:03:57.484 : en:(52)03:03:57:484
03:10:36.049 : en:(53)03:10:36:049
03:20:07.620 : en:(54)03:20:07:620

pb.wtf



Скачать Кинг Конг через торрент https://b.radikal.ru/b15/1806/34/c40129d0120e.jpg Скачать, смотреть онлайн Кинг Конг бесплантно в хорошем качестве Описание: В 1930-м году съемочная группа под предводительством режиссера-неудачника Карла Дэнхэма отправляется на загадочный Остров Черепа ... 10 10 10
Info! Золотая раздача, скачанное не засчитывается.
Торрент: Зарегистрирован [2018-06-07 17:46] · скачан: 100 раз
Статус: √ проверено
Размер: 8.64 GB
Как cкачать? Как скачать Кинг Конг через торрент | UTorrent

% Раздел Тема Автор DL S | L
Фильмы 2001-2005 [ 3.55 GB ] Кинг Конг / King Kong [2005 HDRip by Dean24] Dean24 Скачать
1 | 1


Последний раз редактировалось: Мичман37 (2018-06-07 18:35), всего редактировалось 1 раз

28-11-2019 20:33  

Отключить всю рекламу на сайте

07-06-2018 18:07 Кинг Конг Скачать торрент  

МичМан1,

Цитата:

Кинг Конг [Расширенная версия] / King Kong [Extended Cut] (Питер Джексон) [2005 г., боевик, драма, мелодрама, приключения, фэнтези, BDRip 1080p, HEVC (10bit),Дубляж]

Из-за заголовка названия фильма ибираем [Расширенная версия],[Extended Cut] и делаем так:

Цитата:

Кинг Конг / King Kong (Питер Джексон) [2005 г., боевик, драма, мелодрама, приключения, фэнтези, BDRip 1080p, HEVC (10bit),Дубляж] [Расширенная версия / Extended Cut]

pb.wtf



    Дорогой пользователь! Огромная просьба, поблагодарите релизера, оцените раздачу и оставьте свои комментарий, если Вы скачали Кинг Конг через торрент бесплатно!
    Комментировать посты могут только пользователи прошедшие не сложную регистрацию
    Показать сообщения:    

    Кинг Конг через торрент
    Скачать бесплатно Кинг Конг
    Кинг Конг скачать торрент
    Кинг Конг смотреть онлайн
    Cкачать фильм Кинг Конг бесплатно
    Кинг Конг скачать торрент в хорошем качестве
    Кинг Конг смотреть онлайн бесплатно в хорошем качестве


    Вы не можете начинать темы
    Вы не можете отвечать на сообщения
    Вы не можете редактировать свои сообщения
    Вы не можете удалять свои сообщения
    Вы не можете голосовать в опросах
    Вы не можете прикреплять файлы к сообщениям
    Вы можете скачивать файлы