новый адрес пиратбит piratbit
Мега распродажа FORZA HORIZON 4 ULTIMATE+ВСЕ DLC+ОНЛАЙН всего за 499р. 349 руб. (супер цена). Внимание количество ограничено!!!

iTunes

1+1

iTunes

мы

iTunes

1

iTunes

Чернобыль

iTunes

Ральф против интернета

Лицензия

ПШазам

Лицензия

Игра престолов

Лицензия

30
pack

ВАЖНО

!!Акция!!

Alien_RageХит недели

RePack

Resident Evil 21

ИГРА 18+

pack

RePack

Metro:Exodus

!!Акция!!

Alien_Rage

RePack

fifa19

RePack

Assassins Creed: Odyssey

RePack

NEED FOR SPEED™ PAYBACK

3 сезон

9 сезон

Бесстыжие 9 сезон

Все сериалы

все сериалы на PB.wtf

RePack

FAR CRY 5
Ребята, катастрофически не хватает 1900р. для оплаты серверов за Октябрь (всвязи с блокировками трафик упал в 3 раза), 1-2р., выручайте.
  

Zомбоящик (Константин Смирнов) [2018 г., комедия, WEB-DLRip, iTunes] pb.wtf

Zомбоящик через торрент pb.wtf

Размер: 707 MB | Добавлен: 1 год 5 мес. назад | Торрент скачан:469 раз
Скачать  

07-06-2018 18:21 Zомбоящик Скачать торрент  

Zомбоящик
Год выпуска: 2018
Страна: Россия / Comedy Club Production, ТНТ
Жанр: комедия
Продолжительность: 00:59:19
Перевод: Не требуется (iTunes)

Режиссер: Константин Смирнов



В ролях: Гарик Харламов, Гарик Мартиросян, Тимур Батрутдинов, Александр Ревва, Павел Воля, Екатерина Варнава, Андрей Скороход, Роман Юнусов, Ольга Бузова, Анна Хилькевич

Описание: Во времена Шекспира весь мир был театром, в наши же дни его захватил зомбоящик. 30 звезд ТНТ. Все жанры: драма, комедия, боевик, триллер, научная фантастика, байопик, эротика и экспериментальное кино. От бессмысленного и беспощадного стеба не скроется никто: ни футболисты, ни геи, ни чиновники, ни священники, ни расисты, ни онанисты! Герои «Zомбоящика» интригуют, дразнят, издеваются и смеются вместе со зрителями, доказывая, что вся наша жизнь и есть «Zомбоящик».

Качество: WEB-DLRip
Формат: AVI
Видео кодек: XviD
Аудио кодек: MP3
Видео: 640x272 (2.35:1), 25 fps, XviD build 50 ~1528 kbps avg, 0.35 bit/pixel
Аудио: 48 kHz, MPEG Layer 3, 2 ch, ~128.00 kbps avg
скриншот   скриншот   скриншот   скриншот  

Общее
Полное имя : F:\ФИЛЬМЫ\Zомбоящик.2018.WEB-DLRip.avi
Формат : AVI
Формат/Информация : Audio Video Interleave
Размер файла : 707 Мбайт
Продолжительность : 59 м. 19 с.
Общий поток : 1667 Кбит/сек
Программа кодирования : VirtualDubMod 1.5.10.3 | www.virtualdub-fr.org || (build 2550/release)
Библиотека кодирования : VirtualDubMod build 2550/release

Видео
Идентификатор : 0
Формат : MPEG-4 Visual
Профиль формата : Advanced Simple@L5
Настройки формата : BVOP1
Параметр BVOP формата : 1
Параметр QPel формата : Нет
Параметр GMC формата : Без точки перехода
Параметр матрицы формата : Default (MPEG)
Идентификатор кодека : XVID
Идентификатор кодека/Подсказка : XviD
Продолжительность : 59 м. 19 с.
Битрейт : 1529 Кбит/сек
Ширина : 640 пикселей
Высота : 272 пикселя
Соотношение сторон : 2,35:1
Частота кадров : 25,000 кадров/сек
Цветовое пространство : YUV
Субдискретизация насыщенности : 4:2:0
Битовая глубина : 8 бит
Тип развёртки : Прогрессивная
Метод сжатия : С потерями
Бит/(Пиксели*Кадры) : 0.351
Размер потока : 649 Мбайт (92%)
Библиотека кодирования : XviD 1.2.1 (UTC 2008-12-04)

Аудио
Идентификатор : 1
Формат : MPEG Audio
Версия формата : Version 1
Профиль формата : Layer 3
Настройки формата : Joint stereo / MS Stereo
Идентификатор кодека : 55
Идентификатор кодека/Подсказка : MP3
Продолжительность : 59 м. 19 с.
Вид битрейта : Постоянный
Битрейт : 128 Кбит/сек
Каналы : 2 канала
Частота : 48,0 КГц
Частота кадров : 41,667 кадра/сек (1152 SPF)
Метод сжатия : С потерями
Размер потока : 54,3 Мбайт (8%)
Выравнивание : Соединение по промежуткам
Продолжительность промежутка : 40 мс. (1,00 видеокадр)
Время предзагрузки промежутка : 504 мс.
Библиотека кодирования : LAME3.99r
Настройки программы : -m j -V 4 -q 2 -lowpass 17 -b 128

pb.wtf



Скачать Zомбоящик через торрент http://pic1.kartinco.top/images/11/jlgja.jpg Скачать фильм Zомбоящик через торрент бесплантно в хорошем качестве Описание: Во времена Шекспира весь мир был театром, в наши же дни его захватил зомбоящик. 30 звезд ТНТ. Все жанры: драма, комедия, боевик, ... 8 10 9
Торрент: Зарегистрирован [2018-06-07 18:21] · скачан: 469 раз
Статус: √ проверено
Размер: 707 MB
Как cкачать? Как скачать Zомбоящик через торрент | qTorrent

% Раздел Тема Автор DL S | L
Наши новые фильмы 2018-2019 [ 747 MB ] Zомбоящик [2018 WEB-DLRip-AVC] bober100 Скачать
1 | 0
Наши фильмы (HD, WEB-DL 720p, 1080p) [ 2.3 GB ] Zомбоящик [2018 WEB-DL 1080p] bober100 Скачать
2 | 0
Наши новые фильмы 2018-2019 [ 1.37 GB ] Zомбоящик [2018 WEB-DLRip] bober100 Скачать
1 | 0
Наши фильмы (HD, WEB-DL 720p, 1080p) [ 1.83 GB ] Zомбоящик [2018 WEB-DL 720p] bober100 Скачать
2 | 0


>> Регистрируемся здесь <<






Отзывы и комментарии о схеме читаем и пишем здесь: ---> Отзывы и комментарии о схеме

Новые благодарочки в телеграм довольных пользователей:
скриншот   скриншот   скриншот   скриншот   скриншот

07-06-2018 19:21 Zомбоящик Скачать торрент  

coc900, Исправь дату выхода

Цитата:

1.1.3 Год выхода:

Год выхода фильма на экраны.

25 января 2018,,
Правила раздела Фильмы. Как правильно оформить раздачу фильма pb.wtf



07-06-2018 19:29 Zомбоящик Скачать торрент  

такого дер*ма я еще не видал..... стыдно товарищи за такоеpb.wtf



08-06-2018 07:19 Zомбоящик Скачать торрент  

Есть пару прикольных сценокpb.wtf



08-06-2018 09:01 Zомбоящик Скачать торрент  

Лучше час смотреть на гомно,чем на это!Жалкая пародия на Муви43,только без малейшего сюжета,с никакущими вложениями в сцены.Просто зеленый фон и пара звезд с тупым даже для детского понимания юмором.Если уж взялись снимать такое то надо было идти до конца как в том же Муви43!А именно если есть сцена со спины типа у чела 2 пениса,то и покажите как они висят,но это смешно бы было,а там все построено на фантазии!Типа мы сказали у разобьем голову Бузовой,но и надо было хоть куклу похожую положить и разбить ей голову,а они даже до этого не додумались.Позорище!!!pb.wtf



08-06-2018 16:53 Zомбоящик Скачать торрент  

bober100, вы кто?я вижу лычку RG HD-Films,а не модератор.pb.wtf



09-06-2018 03:14 Zомбоящик Скачать торрент  

coc900 писал(а):

bober100, вы кто?я вижу лычку RG HD-Films,а не модератор.

не подерётесь - не мужики pb.wtf



09-06-2018 03:43 Zомбоящик Скачать торрент  

coc900 писал(а):

bober100, вы кто?я вижу лычку RG HD-Films,а не модератор.

В профиль зайди и посмотри)pb.wtf



09-06-2018 17:49 Zомбоящик Скачать торрент  

bober100, Не зайди,а зайдите.Мне не интересно что в профиле написано.Лычка отсутствует,значит просто релизер.Давайте вежливо обращаться если вы 'модератор'pb.wtf



    Дорогой пользователь! Огромная просьба, поблагодарите релизера, оцените раздачу и оставьте свои комментарий, если Вы скачали Zомбоящик через торрент бесплатно! Внесите свою лепту в развитие PiratBit!
    Комментировать посты могут только пользователи прошедшие не сложную регистрацию
    Показать сообщения:    

    Zомбоящик через торрент
    Скачать бесплатно Zомбоящик
    Zомбоящик скачать торрент
    Zомбоящик смотреть онлайн
    Cкачать фильм Zомбоящик бесплатно
    Zомбоящик скачать торрент в хорошем качестве
    Zомбоящик смотреть онлайн бесплатно в хорошем качестве


    Вы не можете начинать темы
    Вы не можете отвечать на сообщения
    Вы не можете редактировать свои сообщения
    Вы не можете удалять свои сообщения
    Вы не можете голосовать в опросах
    Вы не можете прикреплять файлы к сообщениям
    Вы можете скачивать файлы