Ссылка на приватное зеркало нашего сайта всего за 1$. Внимание количество ограничено!!!

2 сезон

iTunes

1 сезон

1

2 сезон

2 сезон

iTunes

1 сезон

RePack

30

Новинка

ВАЖНО

ИГРА 18+

pack

RePack

MK11
pack

Забери бонус

RePack

jed

!!Акция!!

Alien_Rage

RePack

fifa19

RePack

Assassins Creed: Odyssey

RePack

NEED FOR SPEED™ PAYBACK

4 сезон

9 сезон

Бесстыжие 9 сезон

Все сериалы

все сериалы на PB.wtf

RePack

FAR CRY 5
  

:wtf:-судьба / Si tu voyais son coeur (Джоан Шемла) [2017, Драма, WEB-DL 1080p] MVO [Лицензия / iTunes] pb.wtf

:wtf:-судьба через торрент pb.wtf

Размер: 3.19 GB | Добавлен: 2 года 5 мес. назад | Торрент скачан:45 раз
Скачать  

07-06-2018 19:38 :wtf:-судьба Скачать торрент  

-судьба / Si tu voyais son coeur
Год выпуска: 2017
Страна: Франция
Жанр: Драма
Продолжительность: 01:26:11
Перевод: Профессиональный многоголосый | Лицензия / iTunes
Субтитры: отсутствуют

Режиссер: Джоан Шемла

rating

В ролях:

Гаэль Гарсиа Берналь, Марина Вакт, Науэль Перес Бискаярт, Карим Леклу, Войцех Пшоняк, Антония Малинова, Патрик Де Валетт, Аббес Захмани

Описание:

После несчастного случая, оборвавшего жизнь его лучшего друга, Даниэль влачит жалкое существование, участвуя в мелких грабежах и не чурается грязной работы. Неожиданно мрак ежедневного существования пронзает луч света - Даниэль встречает Франсин.

Качество: WEB-DL 1080p
Формат: MKV

Видео: MPEG-4 AVC, 4912 Кбит/с, 1920x1038
Аудио: Русский (AC3, 6 ch, 384 Кбит/с)
скриншот   скриншот   скриншот  

Общее
Уникальный идентификатор : 63828719712348130640399159175911201053 (0x3004F6D9C837A39CE42723633C46591D)
Полное имя : F:\Si tu voyais son coeur_2017_WEBDL-1080p_iTunes_RG_NEW_MOWER.mkv
Формат : Matroska
Версия формата : Version 4 / Version 2
Размер файла : 3,19 Гбайт
Продолжительность : 1 ч. 26 м.
Общий поток : 5298 Кбит/сек
Дата кодирования : UTC 2018-06-07 18:08:57
Программа кодирования : mkvmerge v23.0.0 ('The Bride Said No') 32-bit
Библиотека кодирования : libebml v1.3.6 + libmatroska v1.4.9

Видео
Идентификатор : 2
Формат : AVC
Формат/Информация : Advanced Video Codec
Профиль формата : High@L4
Параметр CABAC формата : Да
Параметр RefFrames формата : 4 кадра
Идентификатор кодека : V_MPEG4/ISO/AVC
Продолжительность : 1 ч. 26 м.
Битрейт : 4912 Кбит/сек
Ширина : 1920 пикселей
Высота : 1038 пикселей
Соотношение сторон : 1,85:1
Режим частоты кадров : Постоянный
Частота кадров : 24,000 кадра/сек
Цветовое пространство : YUV
Субдискретизация насыщенности : 4:2:0
Битовая глубина : 8 бит
Тип развёртки : Прогрессивная
Бит/(Пиксели*Кадры) : 0.101
Размер потока : 2,90 Гбайт (91%)
Язык : English
Default : Да
Forced : Нет
Цветовой диапазон : Limited
Основные цвета : BT.709
Характеристики трансфера : BT.709
Коэффициенты матрицы : BT.709

Аудио
Идентификатор : 1
Формат : AC-3
Формат/Информация : Audio Coding 3
Расширение режима : CM (complete main)
Параметр Endianness формата : Big
Идентификатор кодека : A_AC3
Продолжительность : 1 ч. 26 м.
Вид битрейта : Постоянный
Битрейт : 384 Кбит/сек
Каналы : 6 каналов
Расположение каналов : Front: L C R, Side: L R, LFE
Частота : 48,0 КГц
Частота кадров : 31,250 кадров/сек (1536 spf)
Метод сжатия : С потерями
Задержка видео : -42 мс.
Размер потока : 237 Мбайт (7%)
Язык : Russian
Default : Да
Forced : Нет

Меню
00:00:00.000 : en:Глава 1
00:07:23.000 : en:Глава 2
00:15:55.541 : en:Глава 3
00:23:07.124 : en:Глава 4
00:29:51.374 : en:Глава 5
00:37:43.332 : en:Глава 6
00:45:00.082 : en:Глава 7
00:52:44.832 : en:Глава 8
01:00:48.665 : en:Глава 9
01:08:38.665 : en:Глава 10
01:16:10.790 : en:Глава 11

pb.wtf



Скачать :wtf:-судьба через торрент http://img12.lostpic.net/2018/06/07/487d97b41f480e6f30ca2a9505fab184.jpg Скачать фильм :wtf:-судьба через торрент бесплантно в хорошем качестве Описание: После несчастного случая, оборвавшего жизнь его лучшего друга, Даниэль влачит жалкое существование, участвуя в мелких грабежах и ... 10 10 4
Торрент: Зарегистрирован [2018-06-07 19:38] · скачан: 45 раз
Статус: √ проверено
Размер: 3.19 GB
Как cкачать? Как скачать :wtf:-судьба через торрент | qTorrent

28-11-2019 20:33  

Отключить всю рекламу на сайте

    Дорогой пользователь! Огромная просьба, поблагодарите релизера, оцените раздачу и оставьте свои комментарий, если Вы скачали :wtf:-судьба через торрент бесплатно! Внесите свою лепту в развитие PiratBit!
    Комментировать посты могут только пользователи прошедшие не сложную регистрацию
    Показать сообщения:    

    :wtf:-судьба через торрент
    Скачать бесплатно :wtf:-судьба
    :wtf:-судьба скачать торрент
    :wtf:-судьба смотреть онлайн
    Cкачать фильм :wtf:-судьба бесплатно
    :wtf:-судьба скачать торрент в хорошем качестве
    :wtf:-судьба смотреть онлайн бесплатно в хорошем качестве


    Вы не можете начинать темы
    Вы не можете отвечать на сообщения
    Вы не можете редактировать свои сообщения
    Вы не можете удалять свои сообщения
    Вы не можете голосовать в опросах
    Вы не можете прикреплять файлы к сообщениям
    Вы можете скачивать файлы