Ссылка на приватное зеркало всего за 1$. Внимание количество ограничено!!!

OK

1+1

iTunes

мы

OK

1

WEB-DLRip

Джокер

Пифагор

Ведьмак / The Witcher сериал

iTunes

ПШазам

ОК

Оно 2

iTunes

30
pack

Вам бонус

ВАЖНО

!!Акция!!

Alien_RageХит недели

RePack

Resident Evil 21

ИГРА 18+

pack

RePack

jed

RePack

fifa19

RePack

Assassins Creed: Odyssey

RePack

NEED FOR SPEED™ PAYBACK

4 сезон

9 сезон

Бесстыжие 9 сезон

Все сериалы

все сериалы на PB.wtf

RePack

FAR CRY 5
  

451 градус по Фаренгейту / Fahrenheit 451 (Рамин Бахрани) [2018, Фантастика, драма, WEB-DL 720p] 2xMVO [Amedia, NewStudio] pb.wtf

451 градус по Фаренгейту через торрент pb.wtf

Размер: 2.92 GB | Добавлен: 1 год 7 мес. назад | Торрент скачан:407 раз
Скачать  

08-06-2018 07:31 451 градус по Фаренгейту Скачать торрент  

451 градус по Фаренгейту / Fahrenheit 451
Год выпуска: 2018
Страна: США
Жанр: Фантастика, драма
Продолжительность: 01:40:14
Перевод:

Профессиональный (многоголосый, закадровый) | Amedia
Профессиональный (многоголосый, закадровый) | NewStudio

Субтитры: Русские (Forced & Full), английские

Режиссер: Рамин Бахрани

rating

В ролях:

Майкл Б. Джордан, София Бутелла, Майкл Шеннон, Кир Дуллеа, Кэнди Александр, Мартин Донован, Лилли Сингх, Мэйко Нгуйен, Джо Пинг, Грэйс Линн Кунг

Описание:

В некоем тоталитарном обществе история переписывается, книги безжалостно сжигаются, а их чтение преследуется по закону. После встречи с юной Клариссой «пожарный» Гай Монтэг меняет свои убеждения и начинает противостоять суровому брандмейстеру Битти.

Качество: WEB-DL 720p
Формат: MKV

Видео: MPEG-4 AVC, 2676 Кбит/с, 1280x720
Аудио#1: Русский (AC3, 6 ch, 384 Кбит/с) - Amedia
Аудио#2: Русский (AC3, 6 ch, 384 Кбит/с) - NewStudio
Аудио#3: английский (AC3, 6 ch, 640 Кбит/с)
скриншот   скриншот   скриншот  

Общее
Уникальный идентификатор : 185878140828685783001559337096629272075 (0x8BD6D3E6F56A3FC9A8F5C8D4FA0D3E0B)
Полное имя : F:\451 по Фаренгейту. 2018. 2 ПМ (WEB-DL 720p).mkv
Формат : Matroska
Версия формата : Version 2
Размер файла : 2,92 Гбайт
Продолжительность : 1 ч. 40 м.
Общий поток : 4167 Кбит/сек
Название фильма : Fahrenheit 451
Дата кодирования : UTC 2018-06-06 19:58:22
Программа кодирования : mkvmerge v7.8.0 ('River Man') 32bit built on Apr 3 2015 12:11:22
Библиотека кодирования : libebml v1.3.1 + libmatroska v1.4.2

Видео
Идентификатор : 1
Формат : AVC
Формат/Информация : Advanced Video Codec
Профиль формата : High@L3.1
Параметр CABAC формата : Да
Параметр RefFrames формата : 5 кадров
Идентификатор кодека : V_MPEG4/ISO/AVC
Продолжительность : 1 ч. 40 м.
Битрейт : 2676 Кбит/сек
Ширина : 1280 пикселей
Высота : 720 пикселей
Соотношение сторон : 16:9
Режим частоты кадров : Постоянный
Частота кадров : 23,976 (24000/1001) кадра/сек
Цветовое пространство : YUV
Субдискретизация насыщенности : 4:2:0
Битовая глубина : 8 бит
Тип развёртки : Прогрессивная
Бит/(Пиксели*Кадры) : 0.121
Размер потока : 1,87 Гбайт (64%)
Язык : English
Default : Да
Forced : Нет
Цветовой диапазон : Limited
Основные цвета : BT.709
Характеристики трансфера : BT.709
Коэффициенты матрицы : BT.709

Аудио #1
Идентификатор : 2
Формат : AC-3
Формат/Информация : Audio Coding 3
Расширение режима : CM (complete main)
Параметр Endianness формата : Big
Идентификатор кодека : A_AC3
Продолжительность : 1 ч. 40 м.
Вид битрейта : Постоянный
Битрейт : 384 Кбит/сек
Каналы : 6 каналов
Расположение каналов : Front: L C R, Side: L R, LFE
Частота : 48,0 КГц
Частота кадров : 31,250 кадров/сек (1536 spf)
Метод сжатия : С потерями
Размер потока : 275 Мбайт (9%)
Заголовок : NewStudio
Язык : Russian
Default : Да
Forced : Нет

Аудио #2
Идентификатор : 3
Формат : AC-3
Формат/Информация : Audio Coding 3
Расширение режима : CM (complete main)
Параметр Endianness формата : Big
Идентификатор кодека : A_AC3
Продолжительность : 1 ч. 40 м.
Вид битрейта : Постоянный
Битрейт : 384 Кбит/сек
Каналы : 6 каналов
Расположение каналов : Front: L C R, Side: L R, LFE
Частота : 48,0 КГц
Частота кадров : 31,250 кадров/сек (1536 spf)
Метод сжатия : С потерями
Размер потока : 275 Мбайт (9%)
Заголовок : Amedia
Язык : Russian
Default : Нет
Forced : Нет

Аудио #3
Идентификатор : 4
Формат : AC-3
Формат/Информация : Audio Coding 3
Расширение режима : CM (complete main)
Параметр Endianness формата : Big
Идентификатор кодека : A_AC3
Продолжительность : 1 ч. 40 м.
Вид битрейта : Постоянный
Битрейт : 640 Кбит/сек
Каналы : 6 каналов
Расположение каналов : Front: L C R, Side: L R, LFE
Частота : 48,0 КГц
Частота кадров : 31,250 кадров/сек (1536 spf)
Метод сжатия : С потерями
Размер потока : 459 Мбайт (15%)
Язык : English
Default : Нет
Forced : Нет

Текст #1
Идентификатор : 5
Формат : UTF-8
Идентификатор кодека : S_TEXT/UTF8
Идентификатор кодека/Информация : UTF-8 Plain Text
Заголовок : Forced
Язык : Russian
Default : Да
Forced : Да

Текст #2
Идентификатор : 6
Формат : UTF-8
Идентификатор кодека : S_TEXT/UTF8
Идентификатор кодека/Информация : UTF-8 Plain Text
Язык : Russian
Default : Нет
Forced : Нет

Текст #3
Идентификатор : 7
Формат : UTF-8
Идентификатор кодека : S_TEXT/UTF8
Идентификатор кодека/Информация : UTF-8 Plain Text
Язык : English
Default : Нет
Forced : Нет

pb.wtf



Скачать 451 градус по Фаренгейту через торрент http://pic1.kartinco.top/images/11/unzb4.jpg Скачать фильм 451 градус по Фаренгейту через торрент бесплантно в хорошем качестве Описание: В некоем тоталитарном обществе история переписывается, книги безжалостно сжигаются, а их чтение преследуется по закону. После ... 8.6 10 14
Info! Золотая раздача, скачанное не засчитывается.
Торрент: Зарегистрирован [2018-06-08 07:31] · скачан: 407 раз
Статус: √ проверено
Размер: 2.92 GB
Как cкачать? Как скачать 451 градус по Фаренгейту через торрент | qTorrent

% Раздел Тема Автор DL S | L
Фильмы 2018 [DVDrip, WEB-DLRip, HDrip] (DUB, MVO) [ 1.42 GB ] 451 градус по Фаренгейту / Fahrenheit 451 [2018 BDRip] MVO [Amedia] Twi7ter Скачать
4 | 0
Фильмы [HD 720p, 1080p] (Хороший звук DUB, MVO) [ 6.2 GB ] 451 градус по Фаренгейту / Fahrenheit 451 [2018 BDRip 720p] 2xMVO [Amedia NewStudio] bober100 Скачать
2 | 0
Фильмы 2018 [DVDrip, WEB-DLRip, HDrip] (DUB, MVO) [ 1.46 GB ] 451 градус по Фаренгейту / Fahrenheit 451 [2018 BDRip-AVC] MVO [Amedia] bober100 Скачать
4 | 0
Фильмы [HD 720p, 1080p] (Хороший звук DUB, MVO) [ 13.27 GB ] 451 градус по Фаренгейту / Fahrenheit 451 [2018 BDRip 1080p] 2xMVO [Amedia NewStudio] bober100 Скачать
1 | 0
Фильмы (Blu-ray, BD-Remux, HDDVD) [ 26.62 GB ] 451 градус по Фаренгейту / Fahrenheit 451 [2018 BD Remux 1080p] 3xMVO [Amedia HDrezka Studio NewStudio] bober100 Скачать
1 | 0
Фильмы 2018 [DVDrip, WEB-DLRip, HDrip] (DUB, MVO) [ 1.45 GB ] 451 градус по Фаренгейту / Fahrenheit 451 [2018 WEB-DLRip] MVO [Amedia] bober100 Скачать
1 | 0
R.G. Resident & PiratVoice - Фильмы, Видео [ 2.05 GB ] 451 градус по Фаренгейту / Fahrenheit 451 [2018 WEB-DLRip от R.G. Resident] MVO [Amedia] -Lexx- Скачать
1 | 0

28-11-2019 20:33  

Отключить всю рекламу на сайте


08-06-2018 17:53 451 градус по Фаренгейту Скачать торрент  

Судя по описанию напоминает "перепевку" - эквилибриум...pb.wtf



08-06-2018 18:15 451 градус по Фаренгейту Скачать торрент  

это же классика по Рею Брэдбери.
Книга хорошая.pb.wtf



10-06-2018 12:06 451 градус по Фаренгейту Скачать торрент  

Ах как толерантно.Хороший чёрный противостоит плохому белому pb.wtf



    Дорогой пользователь! Огромная просьба, поблагодарите релизера, оцените раздачу и оставьте свои комментарий, если Вы скачали 451 градус по Фаренгейту через торрент бесплатно! Внесите свою лепту в развитие PiratBit!
    Комментировать посты могут только пользователи прошедшие не сложную регистрацию
    Показать сообщения:    

    451 градус по Фаренгейту через торрент
    Скачать бесплатно 451 градус по Фаренгейту
    451 градус по Фаренгейту скачать торрент
    451 градус по Фаренгейту смотреть онлайн
    Cкачать фильм 451 градус по Фаренгейту бесплатно
    451 градус по Фаренгейту скачать торрент в хорошем качестве
    451 градус по Фаренгейту смотреть онлайн бесплатно в хорошем качестве


    Вы не можете начинать темы
    Вы не можете отвечать на сообщения
    Вы не можете редактировать свои сообщения
    Вы не можете удалять свои сообщения
    Вы не можете голосовать в опросах
    Вы не можете прикреплять файлы к сообщениям
    Вы можете скачивать файлы