Всегда рабочее зеркало без VPN и Proxy просто перед .vidak.icu напиши любое слово или цифру, Пример http://q6jz.vidak.icu

MVO

MVO

1 сезон

1

1 сезон

iTunes

1 сезон

13

1 сезон

Deluxe

pack

Рекомендуем

Repack

30

ВАЖНО

RePack

MK11

RePack

jed

RePack

fifa19

RePack

RDR2

RePack

NEED FOR SPEED™ PAYBACK

Кинопоиск HD

6 сезон

 Острые козырьки 6 сезон

Все сериалы

все сериалы на PB.wtf

RePack

FAR CRY 5
  
Magnet ссылка

План побега / Escape Plan (Микаэль Хофстрём) [2013, фантастика, боевик, триллер, UHD BDRemux 2160p] DUB + 4xAVO + MVO [Baibako] pb.wtf

План побега через торрент pb.wtf

Размер: 75.44 GB | Добавлен: 4 года 2 мес. назад | Торрент скачан:20 раз
Смотреть онлайн План побега | Скачать    Ребята, помогите собрать деньги на оплату серверов!!!

08-06-2018 10:18 План побега Скачать торрент  

План побега / Escape Plan«Из самой надежной тюрьмы в одиночку убежать невозможно»
Год выпуска: 2013
Страна: США
Жанр: фантастика, боевик, триллер, криминал, детектив
Продолжительность: 01:55:36
Перевод: Дублированный, профессиональный многоголосый, авторский
Субтитры: Русские, английские
Режиссер: Микаэль Хофстрём
В ролях:

Сильвестр Сталлоне (Ray Breslin), Арнольд Шварценеггер (Rottmayer), Джеймс Кэвизел (Hobbes), Винни Джонс (Drake), Сэм Нил (Dr. Kyrie), Фаран Таир (Javed), Винсент Д’Онофрио (Lester Clark), Эми Райан (Abigail), Фифти Сент (Hush), Катрина Балф (Jessica Miller), Мэтт Джералд (Roag), Дэвид Джозеф Мартинес (Captain Newal Beradah)
Описание:
Один из самых выдающихся мировых специалистов по системам безопасности соглашается на последнюю рисковую операцию: сбежать из суперсекретной высокотехнологичной тюрьмы, которую называют «Гробницей». Преданный Рэй Бреслин вынужден прибегнуть к помощи напарника - заключенного Эмиля Ротмайера, чтобы разработать отчаянный и практически неосуществимый план побега из самой защищенной тюрьмы в мире!
Рейтинг:

MPAA: R - Лицам до 17 лет обязательно присутствие взрослого
Качество: UHD BDRemux 2160p
Формат: MKV
Видео: HEVC HDR, 61.1 Mбит/с, 3840x2160, 23.976 кадр/с
Звук:
Русский (DTS-HD MA, 6 ch, 1184 Кбит/с) / Дубляж, Blu-Ray RUS, Пифагор_2013г
Русский (DTS-HD MA, 8 ch, 5060 Кбит/с) / MVO, Baibako
Русский (DTS-HD MA, 8 ch, 5060 Кбит/с) / Авторский |Яроцкий, Михаил_(kyberpunk)
Русский (DTS-HD MA, 8 ch, 5043 Кбит/с) / Авторский |Горчаков, Василий Овидиевич
Русский (DTS-HD MA, 8 ch, 5043 Кбит/с) / Авторский |Гаврилов, Андрей Юрьевич
Русский (DTS-HD MA, 8 ch, 5037Кбит/с) / Авторский |Володарский, Леонид Вениаминович
Английский (TrueHD+Atmos, 8 ch, 7860 Кбит/с)
Английский (AC3, 6 ch, 640 Кбит/с)
Навигация по главам: есть
В одной из сцен герой Сталлоне определяет местоположение тюрьмы, ссылаясь на закручивание воды при стоке. Обратное закручивание воды при стоке — околонаучный миф, основанный на неверном применении эффекта Кориолиса к движению воды в водовороте, возникающему при её стоке в сливное отверстие раковины или ванны. Суть мифа состоит в том, что вода якобы закручивается в разных направлениях в Южном и Северном полушариях Земли, что якобы объясняется вращением Земли и действием силы Кориолиса.
Идея о том, чтобы вместе сняться в фильме, обсуждалась между Сильвестром Сталлоне и Арнольдом Шварценеггером на протяжении многих лет, еще с середины 1980-х. Были написаны различные версии сценария, но, по словам Шварценнегера, их со Сталлоне съемочные графики не совпадали. После того как Шварценнегер занял пост губернатора, а затем исполнил эпизодическую роль в фильме «Неудержимые» (2010), они вернулись к идее о совместной работе.
Сильвестр Сталлоне повредил сухожилие правой ноги во время съёмок сцены боя. Съёмки проходили в Новом Орлеане, Луизиане и Лос-Анджелесе.
Предполагалось, что фильм поставит Антуан Фукуа, а главную роль сыграет Брюс Уиллис.
Во время сцены в карцере герой Шварценеггера обращается к Господу и смотрит на Кэвизела, который исполнял главную роль в фильме «Страсти Христовы» (2004).
General
Unique ID : 22869753321360776638899914001335535026 (0x11348DE4EA93D8AD7BE5B36BBA3945B2)
Complete name : C:UsersPublicVideosSample VideosFilmyEscape.Plan.2013.BDRemux.2160p.HDR.MediaClub.mkv
Format : Matroska
Format version : Version 4 / Version 2
File size : 75.4 GiB
Duration : 1 h 55 min
Overall bit rate mode : Variable
Overall bit rate : 93.4 Mb/s
Encoded date : UTC 2018-06-08 07:44:21
Writing application : mkvmerge v19.0.0 ('Brave Captain') 64-bit
Writing library : libebml v1.3.5 + libmatroska v1.4.8
Cover : Yes
Attachments : cover.jpg

Video
ID : 1
Format : HEVC
Format/Info : High Efficiency Video Coding
Commercial name : HDR10
Format profile : Main [email protected]@High
Codec ID : V_MPEGH/ISO/HEVC
Duration : 1 h 55 min
Bit rate : 61.1 Mb/s
Width : 3 840 pixels
Height : 2 160 pixels
Display aspect ratio : 16:9
Frame rate mode : Constant
Frame rate : 23.976 (24000/1001) FPS
Color space : YUV
Chroma subsampling : 4:2:0 (Type 2)
Bit depth : 10 bits
Bits/(Pixel*Frame) : 0.307
Stream size : 49.3 GiB (65%)
Title : BDRemux.2160p.HDR by Silverok
Default : Yes
Forced : No
Color range : Limited
Color primaries : BT.2020
Transfer characteristics : PQ
Matrix coefficients : BT.2020 non-constant
Mastering display color primaries : BT.709
Mastering display luminance : min: 0.0050 cd/m2, max: 1000 cd/m2
Maximum Content Light Level : 703 cd/m2
Maximum Frame-Average Light Level : 360 cd/m2

Audio #1
ID : 2
Format : DTS
Format/Info : Digital Theater Systems
Format profile : MA / Core
Codec ID : A_DTS
Duration : 1 h 55 min
Bit rate mode : Variable / Constant
Bit rate : 1 814 kb/s / 1 509 kb/s
Channel(s) : 6 channels
Channel positions : Front: L C R, Side: L R, LFE
Sampling rate : 48.0 kHz
Frame rate : 93.750 FPS (512 SPF)
Bit depth : 16 bits
Compression mode : Lossless / Lossy
Delay relative to video : 7 ms
Stream size : 1.46 GiB (2%)
Title : Дубляж, Blu-Ray RUS, Пифагор_2013г
Language : Russian
Default : Yes
Forced : No

Audio #2
ID : 3
Format : DTS
Format/Info : Digital Theater Systems
Format profile : MA / Core
Codec ID : A_DTS
Duration : 1 h 55 min
Bit rate mode : Variable / Constant
Bit rate : 5 060 kb/s / 1 509 kb/s
Channel(s) : 8 channels / 6 channels
Channel positions : Front: L C R, Side: L R, Back: L R, LFE / Front: L C R, Side: L R, LFE
Sampling rate : 48.0 kHz
Frame rate : 93.750 FPS (512 SPF)
Bit depth : 24 bits
Compression mode : Lossless / Lossy
Delay relative to video : 7 ms
Stream size : 4.09 GiB (5%)
Title : MVO, Baibako
Language : Russian
Default : No
Forced : No

Audio #3
ID : 4
Format : DTS
Format/Info : Digital Theater Systems
Format profile : MA / Core
Codec ID : A_DTS
Duration : 1 h 55 min
Bit rate mode : Variable / Constant
Bit rate : 5 046 kb/s / 1 509 kb/s
Channel(s) : 8 channels / 6 channels
Channel positions : Front: L C R, Side: L R, Back: L R, LFE / Front: L C R, Side: L R, LFE
Sampling rate : 48.0 kHz
Frame rate : 93.750 FPS (512 SPF)
Bit depth : 24 bits
Compression mode : Lossless / Lossy
Delay relative to video : 7 ms
Stream size : 4.07 GiB (5%)
Title : Одноголосый закадровый |Яроцкий, Михаил_(kyberpunk)_|
Language : Russian
Default : No
Forced : No

Audio #4
ID : 5
Format : DTS
Format/Info : Digital Theater Systems
Format profile : MA / Core
Codec ID : A_DTS
Duration : 1 h 55 min
Bit rate mode : Variable / Constant
Bit rate : 5 043 kb/s / 1 509 kb/s
Channel(s) : 8 channels / 6 channels
Channel positions : Front: L C R, Side: L R, Back: L R, LFE / Front: L C R, Side: L R, LFE
Sampling rate : 48.0 kHz
Frame rate : 93.750 FPS (512 SPF)
Bit depth : 24 bits
Compression mode : Lossless / Lossy
Delay relative to video : 7 ms
Stream size : 4.07 GiB (5%)
Title : Авторский (одноголосый закадровый) |Горчаков, Василий Овидиевич|
Language : Russian
Default : No
Forced : No

Audio #5
ID : 6
Format : DTS
Format/Info : Digital Theater Systems
Format profile : MA / Core
Codec ID : A_DTS
Duration : 1 h 55 min
Bit rate mode : Variable / Constant
Bit rate : 5 045 kb/s / 1 509 kb/s
Channel(s) : 8 channels / 6 channels
Channel positions : Front: L C R, Side: L R, Back: L R, LFE / Front: L C R, Side: L R, LFE
Sampling rate : 48.0 kHz
Frame rate : 93.750 FPS (512 SPF)
Bit depth : 24 bits
Compression mode : Lossless / Lossy
Delay relative to video : 7 ms
Stream size : 4.07 GiB (5%)
Title : Авторский (одноголосый закадровый) |Гаврилов, Андрей Юрьевич|
Language : Russian
Default : No
Forced : No

Audio #6
ID : 7
Format : DTS
Format/Info : Digital Theater Systems
Format profile : MA / Core
Codec ID : A_DTS
Duration : 1 h 55 min
Bit rate mode : Variable / Constant
Bit rate : 5 037 kb/s / 1 509 kb/s
Channel(s) : 8 channels / 6 channels
Channel positions : Front: L C R, Side: L R, Back: L R, LFE / Front: L C R, Side: L R, LFE
Sampling rate : 48.0 kHz
Frame rate : 93.750 FPS (512 SPF)
Bit depth : 24 bits
Compression mode : Lossless / Lossy
Delay relative to video : 7 ms
Stream size : 4.07 GiB (5%)
Title : Авторский (одноголосый закадровый) |Володарский, Леонид Вениаминович|
Language : Russian
Default : No
Forced : No

Audio #7
ID : 8
Format : TrueHD
Format profile : TrueHD+Atmos / TrueHD
Codec ID : A_TRUEHD
Duration : 1 h 55 min
Bit rate mode : Variable
Bit rate : 4 755 kb/s
Maximum bit rate : 7 860 kb/s
Channel(s) : Object Based / 8 channels
Channel positions : Object Based / Front: L C R, Side: L R, Back: L R, LFE
Sampling rate : / 48.0 kHz
Frame rate : 1 200.000 FPS (40 SPF)
Compression mode : Lossless
Stream size : 3.84 GiB (5%)
Language : English
Default : No
Forced : No

Audio #8
ID : 9
Format : AC-3
Format/Info : Audio Coding 3
Codec ID : A_AC3
Duration : 1 h 55 min
Bit rate mode : Constant
Bit rate : 448 kb/s
Channel(s) : 6 channels
Channel positions : Front: L C R, Side: L R, LFE
Sampling rate : 48.0 kHz
Frame rate : 31.250 FPS (1536 SPF)
Bit depth : 16 bits
Compression mode : Lossy
Stream size : 370 MiB (0%)
Language : English
Service kind : Complete Main
Default : No
Forced : No

Text #1
ID : 10
Format : UTF-8
Codec ID : S_TEXT/UTF8
Codec ID/Info : UTF-8 Plain Text
Duration : 1 h 46 min
Bit rate : 74 b/s
Count of elements : 1124
Stream size : 58.0 KiB (0%)
Title : Full
Language : Russian
Default : Yes
Forced : No

Text #2
ID : 11
Format : UTF-8
Codec ID : S_TEXT/UTF8
Codec ID/Info : UTF-8 Plain Text
Duration : 1 h 46 min
Bit rate : 74 b/s
Count of elements : 1132
Stream size : 58.4 KiB (0%)
Title : full_Воронин, Евгений
Language : Russian
Default : No
Forced : No

Text #3
ID : 12
Format : UTF-8
Codec ID : S_TEXT/UTF8
Codec ID/Info : UTF-8 Plain Text
Duration : 1 h 45 min
Bit rate : 43 b/s
Count of elements : 1104
Stream size : 33.9 KiB (0%)
Title : Full
Language : English
Default : No
Forced : No

Text #4
ID : 13
Format : UTF-8
Codec ID : S_TEXT/UTF8
Codec ID/Info : UTF-8 Plain Text
Duration : 1 h 46 min
Bit rate : 46 b/s
Count of elements : 1261
Stream size : 36.0 KiB (0%)
Title : SDH
Language : English
Default : No
Forced : No

Text #5
ID : 14
Format : UTF-8
Codec ID : S_TEXT/UTF8
Codec ID/Info : UTF-8 Plain Text
Duration : 1 h 46 min
Bit rate : 56 b/s
Count of elements : 1263
Stream size : 44.0 KiB (0%)
Title : SDH Colored
Language : English
Default : No
Forced : No

Menu
00:00:00.000 : en:00:00:00.000
00:06:32.851 : en:00:06:32.851
00:15:40.148 : en:00:15:40.148
00:19:49.647 : en:00:19:49.647
00:26:21.914 : en:00:26:21.914
00:33:07.319 : en:00:33:07.319
00:39:13.518 : en:00:39:13.518
00:45:40.905 : en:00:45:40.905
00:50:06.378 : en:00:50:06.378
00:58:58.702 : en:00:58:58.702
01:06:44.042 : en:01:06:44.042
01:13:50.343 : en:01:13:50.343
01:21:03.567 : en:01:21:03.567
01:27:57.731 : en:01:27:57.731
01:35:34.395 : en:01:35:34.395
01:42:14.086 : en:01:42:14.086
pb.wtf



Скачать План побега через торрент https://d.radikal.ru/d28/1806/0c/026f82f436dd.png Скачать, смотреть онлайн План побега бесплантно в хорошем качестве Описание: Один из самых выдающихся мировых специалистов по системам безопасности соглашается на последнюю рисковую операцию: сбежать из ... 10 10 1
Info! Золотая раздача, скачанное не засчитывается.
Торрент: Зарегистрирован [2018-06-08 10:18] · скачан: 20 раз
Статус: √ проверено
Размер: 75.44 GB
Как cкачать? Как скачать План побега через торрент | UTorrent

% Раздел Тема Автор DL S | L
Фильмы (HD 720p, 1080p) (48-60 fps) [ 3.51 GB ] План побега 3 / Escape Plan: The Extractors [2018 BDRip 720p / 60 FPS ] [Extended Cut] от R.G. HD-Films slaventi-69 Скачать
4 | 0
Фильмы (HD 720p, 1080p) (48-60 fps) [ 3.45 GB ] План побега 2 / Escape Plan 2: Hades [2018 BDRip 720p / 60 FPS ] от R.G. HD-Films slaventi-69 Скачать
1 | 0
Фильмы (HD 720p, 1080p) (48-60 fps) [ 3.98 GB ] План побега / Escape Plan [2013 BDRip 720p / 60 FPS ] от R.G. HD-Films slaventi-69 Скачать
1 | 0
Фильмы 2019-2020 [DVDrip, WEB-DLRip, HDrip] (DUB, MVO) [ 1.42 GB ] План побега 3 / Escape Plan: The Extractors [2019 BDRip] - Twi7ter Скачать
3 | 0
Ultra HD (UHD: 2K, 4K, 8K) — видео сверхвысокой чёткости [ 23.45 GB ] План побега 2 / Escape Plan 2: Hades [2018 UHD WEBRip 2160p] MVO [HDRezka Studio] + bober100 Скачать
1 | 0
Фильмы 2019-2020 [DVDrip, WEB-DLRip, HDrip] (DUB, MVO) [ 1.42 GB ] План побега 3 / Escape Plan: The Extractors [2019 BDRip] [Расширенная версия] bober100 Скачать
2 | 0
Фильмы 2019-2020 [DVDrip, WEB-DLRip, HDrip] (DUB, MVO) [ 746 MB ] План побега 3 / Escape Plan: The Extractors [2019 BDRip] [Расширенная версия] bober100 Скачать
1 | 0

28-11-2019 20:33  

Отключить вcю реклaмy на сайте

    Дорогой пользователь! Огромная просьба, поблагодарите релизера, оцените раздачу и оставьте свои комментарий, если Вы скачали План побега через торрент бесплатно!
    Комментировать посты могут только пользователи прошедшие не сложную регистрацию
    Показать сообщения:    

    План побега через торрент
    Скачать бесплатно План побега
    План побега скачать торрент
    План побега смотреть онлайн
    Cкачать фильм План побега бесплатно
    План побега скачать торрент в хорошем качестве
    План побега смотреть онлайн бесплатно в хорошем качестве


    Вы не можете начинать темы
    Вы не можете отвечать на сообщения
    Вы не можете редактировать свои сообщения
    Вы не можете удалять свои сообщения
    Вы не можете голосовать в опросах
    Вы не можете прикреплять файлы к сообщениям
    Вы можете скачивать файлы