Всегда рабочее зеркало без VPN и Proxy просто перед .vidak.icu напиши любое слово или цифру, Пример http://58v0.vidak.icu

Лицензия

MVO

1 сезон

1

1 сезон

iTunes

1 сезон

13

1 сезон

Deluxe

pack

Рекомендуем

Repack

30

ВАЖНО

RePack

MK11

RePack

jed

RePack

fifa19

RePack

RDR2

RePack

NEED FOR SPEED™ PAYBACK

Кинопоиск HD

6 сезон

 Острые козырьки 6 сезон

Все сериалы

все сериалы на PB.wtf

RePack

FAR CRY 5
  
Magnet ссылка

Ограбление в ураган / The Hurricane Heist (Роб Коэн) [2018, боевик, триллер, UHD BDRip 2160p] Дублированный [iTunes] pb.wtf

Ограбление в ураган через торрент pb.wtf

Размер: 26.69 GB | Добавлен: 4 года 2 мес. назад | Торрент скачан:163 раза
Смотреть онлайн Ограбление в ураган | Скачать    Ребята, помогите собрать деньги на оплату серверов!!!

09-06-2018 02:57 Ограбление в ураган Скачать торрент  

Ограбление в ураган / The Hurricane Heist

Год выпуска: 2018
Страна: США
Жанр: боевик, триллер
Продолжительность: 01:43:05
Перевод: Дублированный [iTunes]
Субтитры: Английские, испанские
Режиссер: Роб Коэн
В ролях:

Тоби Кеббелл (Will), Мэгги Грэйс (Casey), Райан Квантен (Breeze), Ралф Айнесон (Perkins), Мелисса Болона (Sasha), Бен Кросс (Dixon), Джэми Эндрю Катлер (Rice), Кристиан Райан Контрерас (Moreno), Jimmy Walker (Xander), Эд Бирч (Frears), Moyo Akandé (Jaqi), Джеймс Баррискейл (Deputy Michaels)
Описание:
На побережье Америки стремительно надвигается ураган. Тем временем банда воров планирует идеальное ограбление: украсть 600 миллионов долларов из казначейства США, воспользовавшись стихийным бедствием как прикрытием. Но один фактор грабители не учли - честную и подготовленную работницу казначейства. Женщина вовремя объединяется с исследователем ураганов на специализированном бронированном автомобиле, и теперь они - единственные, кто может помешать ворам осуществить план ограбления. Почти единственные, ведь для урагана вне категорий не существует деления на своих и чужих.
Рейтинг:

MPAA: PG-13 - Детям до 13 лет просмотр не желателен
Качество: UHD BDRip 2160p
Формат: MKV
Видео: HEVC, HDR, 31.8 Мбит/с, 3840x1608, 23.976 Кадр/с
Аудио #1: Русский AC-3, 48.0 kHz, 6 ch, 384 kb/s, CBR | Дублированный, iTunes
Аудио #2: Английский TrueHD+Atmos, 48.0 kHz, 8 ch, 4 005 kb/s, VBR | Original
Аудио #3: Английский AC-3, 48.0 kHz, 6 ch, 640 kb/s, CBR | Original
Аудио #4: Английский AC-3, 48.0 kHz, 2 ch, 192 kb/s, CBR | Commentary with director Rob Cohen
Навигация по главам: есть
Complete name : F:\The.Hurricane.Heist.2018.2160p.UHD.BluRay.x265-SpaceHD13.mkv
Format : Matroska
Format version : Version 4 / Version 2
File size : 26.7 GiB
Duration : 1 h 43 min
Overall bit rate mode : Variable
Overall bit rate : 37.1 Mb/s
Movie name : The.Hurricane.Heist.2018.2160p.UHD.BluRay.x265-SpaceHD13
Encoded date : UTC 2018-06-08 18:27:24
Writing application : mkvmerge v22.0.0 ('At The End Of The World') 64-bit
Writing library : libebml v1.3.5 + libmatroska v1.4.8

Video
ID : 1
Format : HEVC
Format/Info : High Efficiency Video Coding
Commercial name : HDR10
Format profile : Main [email protected]@High
Codec ID : V_MPEGH/ISO/HEVC
Duration : 1 h 42 min
Bit rate : 31.8 Mb/s
Width : 3 840 pixels
Height : 1 608 pixels
Display aspect ratio : 2.40:1
Frame rate mode : Constant
Frame rate : 23.976 (24000/1001) FPS
Color space : YUV
Chroma subsampling : 4:2:0 (Type 2)
Bit depth : 10 bits
Bits/(Pixel*Frame) : 0.215
Stream size : 22.9 GiB (86%)
Title : The.Hurricane.Heist.2018.2160p.UHD.BluRay.x265-SpaceHD13
Writing library : x265 2.8+13-617590cb8b98:[Windows][GCC 6.3.0][64 bit] 10bit
Encoding settings : cpuid=1111039 / frame-threads=5 / numa-pools=36 / wpp / no-pmode / no-pme / no-psnr / no-ssim / log-level=2 / input-csp=1 / input-res=3840x1608 / interlace=0 / total-frames=148152 / level-idc=51 / high-tier=1 / uhd-bd=0 / ref=4 / no-allow-non-conformance / repeat-headers / annexb / aud / hrd / info / hash=0 / no-temporal-layers / no-open-gop / min-keyint=1 / keyint=24 / gop-lookahead=0 / bframes=4 / b-adapt=2 / b-pyramid / bframe-bias=0 / rc-lookahead=25 / lookahead-slices=4 / scenecut=40 / radl=0 / no-intra-refresh / ctu=64 / min-cu-size=8 / rect / no-amp / max-tu-size=32 / tu-inter-depth=1 / tu-intra-depth=1 / limit-tu=0 / rdoq-level=2 / dynamic-rd=0.00 / no-ssim-rd / signhide / no-tskip / nr-intra=0 / nr-inter=0 / no-constrained-intra / no-strong-intra-smoothing / max-merge=3 / limit-refs=3 / limit-modes / me=3 / subme=3 / merange=57 / temporal-mvp / weightp / no-weightb / no-analyze-src-pics / deblock=-3:-3 / no-sao / no-sao-non-deblock / rd=4 / no-early-skip / rskip / no-fast-intra / no-tskip-fast / no-cu-lossless / no-b-intra / no-splitrd-skip / rdpenalty=0 / psy-rd=2.00 / psy-rdoq=1.00 / no-rd-refine / no-lossless / cbqpoffs=0 / crqpoffs=0 / rc=crf / crf=17.0 / qcomp=0.60 / qpstep=4 / stats-write=0 / stats-read=0 / vbv-maxrate=160000 / vbv-bufsize=160000 / vbv-init=0.9 / crf-max=0.0 / crf-min=0.0 / ipratio=1.40 / pbratio=1.30 / aq-mode=1 / aq-strength=1.00 / cutree / zone-count=0 / no-strict-cbr / qg-size=32 / no-rc-grain / qpmax=69 / qpmin=0 / no-const-vbv / sar=1 / overscan=0 / videoformat=5 / range=0 / colorprim=9 / transfer=16 / colormatrix=9 / chromaloc=1 / chromaloc-top=2 / chromaloc-bottom=2 / display-window=0 / master-display=G(13250,34500)B(7500,3000)R(34000,16000)WP(15635,16450)L(10000000,50) / max-cll=2083,825 / min-luma=0 / max-luma=1023 / log2-max-poc-lsb=8 / vui-timing-info / vui-hrd-info / slices=1 / no-opt-qp-pps / no-opt-ref-list-length-pps / no-multi-pass-opt-rps / scenecut-bias=0.05 / no-opt-cu-delta-qp / no-aq-motion / hdr / hdr-opt / no-dhdr10-opt / no-idr-recovery-sei / analysis-reuse-level=5 / scale-factor=0 / refine-intra=0 / refine-inter=0 / refine-mv=0 / no-limit-sao / ctu-info=0 / no-lowpass-dct / refine-mv-type=0 / copy-pic=1 / max-ausize-factor=1.0 / no-dynamic-refine / no-single-sei
Language : Russian
Default : Yes
Forced : No
Color range : Limited
Color primaries : BT.2020
Transfer characteristics : PQ
Matrix coefficients : BT.2020 non-constant
Mastering display color pri : Display P3
Mastering display luminance : min: 0.0050 cd/m2, max: 1000 cd/m2
Maximum Content Light Level : 2083 cd/m2
Maximum Frame-Average Light : 825 cd/m2

Audio #1
ID : 2
Format : AC-3
Format/Info : Audio Coding 3
Codec ID : A_AC3
Duration : 1 h 43 min
Bit rate mode : Constant
Bit rate : 384 kb/s
Channel(s) : 6 channels
Channel positions : Front: L C R, Side: L R, LFE
Sampling rate : 48.0 kHz
Frame rate : 31.250 FPS (1536 SPF)
Bit depth : 16 bits
Compression mode : Lossy
Stream size : 283 MiB (1%)
Title : The.Hurricane.Heist.2018.2160p.UHD.BluRay.x265-SpaceHD13
Language : Russian
Service kind : Complete Main
Default : Yes
Forced : Yes

Audio #2
ID : 3
Format : TrueHD
Format profile : TrueHD+Atmos / TrueHD
Codec ID : A_TRUEHD
Duration : 1 h 42 min
Bit rate mode : Variable
Bit rate : 4 005 kb/s
Maximum bit rate : 6 849 kb/s
Channel(s) : Object Based / 8 channels
Channel positions : Object Based / Front: L C R, Side: L R, Back: L R, LFE
Sampling rate : / 48.0 kHz
Frame rate : 1 200.000 FPS (40 SPF)
Compression mode : Lossless
Stream size : 2.88 GiB (11%)
Title : The.Hurricane.Heist.2018.2160p.UHD.BluRay.x265-SpaceHD13
Language : English
Default : No
Forced : No

Audio #3
ID : 4
Format : AC-3
Format/Info : Audio Coding 3
Codec ID : A_AC3
Duration : 1 h 42 min
Bit rate mode : Constant
Bit rate : 640 kb/s
Channel(s) : 6 channels
Channel positions : Front: L C R, Side: L R, LFE
Sampling rate : 48.0 kHz
Frame rate : 31.250 FPS (1536 SPF)
Bit depth : 16 bits
Compression mode : Lossy
Stream size : 471 MiB (2%)
Title : The.Hurricane.Heist.2018.2160p.UHD.BluRay.x265-SpaceHD13
Language : English
Service kind : Complete Main
Default : No
Forced : No

Audio #4
ID : 5
Format : AC-3
Format/Info : Audio Coding 3
Codec ID : A_AC3
Duration : 1 h 42 min
Bit rate mode : Constant
Bit rate : 192 kb/s
Channel(s) : 2 channels
Channel positions : Front: L R
Sampling rate : 48.0 kHz
Frame rate : 31.250 FPS (1536 SPF)
Bit depth : 16 bits
Compression mode : Lossy
Stream size : 141 MiB (1%)
Title : Commentary with director Rob Cohen
Language : English
Service kind : Complete Main
Default : No
Forced : No

Text #1
ID : 6
Format : PGS
Muxing mode : zlib
Codec ID : S_HDMV/PGS
Codec ID/Info : Picture based subtitle format used on BDs/HD-DVDs
Duration : 1 h 42 min
Bit rate : 36.7 kb/s
Count of elements : 2490
Stream size : 26.8 MiB (0%)
Title : SDH
Language : English
Default : No
Forced : No

Text #2
ID : 7
Format : PGS
Muxing mode : zlib
Codec ID : S_HDMV/PGS
Codec ID/Info : Picture based subtitle format used on BDs/HD-DVDs
Duration : 1 h 32 min
Bit rate : 35.6 kb/s
Count of elements : 2452
Stream size : 23.6 MiB (0%)
Language : Spanish
Default : No
Forced : No

Menu
00:00:00.000 : en:00:00:00.000
00:05:41.258 : en:00:05:41.258
00:13:15.253 : en:00:13:15.253
00:20:49.457 : en:00:20:49.457
00:25:48.046 : en:00:25:48.046
00:30:08.974 : en:00:30:08.974
00:35:00.890 : en:00:35:00.890
00:40:40.813 : en:00:40:40.813
00:45:48.162 : en:00:45:48.162
00:52:34.360 : en:00:52:34.360
01:00:22.244 : en:01:00:22.244
01:06:49.881 : en:01:06:49.881
01:11:02.341 : en:01:11:02.341
01:17:43.951 : en:01:17:43.951
01:25:06.351 : en:01:25:06.351
01:32:38.595 : en:01:32:38.595
pb.wtf



Скачать Ограбление в ураган через торрент https://d.radikal.ru/d38/1806/f8/20533d0c0d60.jpg Скачать, смотреть онлайн Ограбление в ураган бесплантно в хорошем качестве Описание: На побережье Америки стремительно надвигается ураган. Тем временем банда воров планирует идеальное ограбление: украсть 600 ... 10 10 3
Торрент: Зарегистрирован [2018-06-09 02:57] · скачан: 163 раз
Статус: √ проверено
Размер: 26.69 GB
Как cкачать? Как скачать Ограбление в ураган через торрент | UTorrent

% Раздел Тема Автор DL S | L
Фильмы [HD 720p, 1080p] (Хороший звук DUB, MVO) [ 9.37 GB ] Ограбление в ураган / The Hurricane Heist [2018 BDRip 1080p] bober100 Скачать
1 | 0
Ultra HD (UHD: 2K, 4K, 8K) — видео сверхвысокой чёткости [ 60.39 GB ] Ограбление в ураган / The Hurricane Heist [2018 UHD BDRemux 2160p] bober100 Скачать
1 | 0
Фильмы 2018 [DVDrip, WEB-DLRip, HDrip] (DUB, MVO) [ 1.41 GB ] Ограбление в ураган / The Hurricane Heist [2018 BDRip] - Twi7ter Скачать
1 | 0
Фильмы [HD 720p, 1080p] (Хороший звук DUB, MVO) [ 3.91 GB ] Ограбление в ураган / The Hurricane Heist [2018 BDRip 1080p HEVC ] Мичман37 Скачать
1 | 0
Фильмы 2018 [DVDrip, WEB-DLRip, HDrip] (DUB, MVO) [ 2.06 GB ] Ограбление в ураган / The Hurricane Heist [2018 BDRip-AVC] - ExKinoRay Enigma2010 Скачать
1 | 0
Фильмы 2018 [DVDrip, WEB-DLRip, HDrip] (DUB, MVO) [ 1.92 GB ] Ограбление в ураган / The Hurricane Heist [2018 WEB-DLRip-AVC] - ExKinoRay Enigma2010 Скачать
1 | 0
R.G. Resident & PiratVoice - Фильмы, Видео [ 1.46 GB ] Ограбление в ураган / The Hurricane Heist [2018 BDRip от R.G. Resident] -Lexx- Скачать
1 | 0

28-11-2019 20:33  

Отключить вcю реклaмy на сайте

    Дорогой пользователь! Огромная просьба, поблагодарите релизера, оцените раздачу и оставьте свои комментарий, если Вы скачали Ограбление в ураган через торрент бесплатно!
    Комментировать посты могут только пользователи прошедшие не сложную регистрацию
    Показать сообщения:    

    Ограбление в ураган через торрент
    Скачать бесплатно Ограбление в ураган
    Ограбление в ураган скачать торрент
    Ограбление в ураган смотреть онлайн
    Cкачать фильм Ограбление в ураган бесплатно
    Ограбление в ураган скачать торрент в хорошем качестве
    Ограбление в ураган смотреть онлайн бесплатно в хорошем качестве


    Вы не можете начинать темы
    Вы не можете отвечать на сообщения
    Вы не можете редактировать свои сообщения
    Вы не можете удалять свои сообщения
    Вы не можете голосовать в опросах
    Вы не можете прикреплять файлы к сообщениям
    Вы можете скачивать файлы