1 сезон

3 сезон

iTunes

1

iTunes

MVO

iTunes

13

1 сезон

RePack

30

Deluxe

pack

Лицензия

ВАЖНО

ИГРА 18+

pack

RePack

MK11

RePack

jed

RePack

fifa19

RePack

RDR2

RePack

NEED FOR SPEED™ PAYBACK

4 сезон

9 сезон

Бесстыжие 9 сезон

Все сериалы

все сериалы на PB.wtf

RePack

FAR CRY 5

Anonymous, добрый вечер, мы катастрофически не успеваем собрать деньги на оплату серверов, помогите нам пожалуйста 5,10,15р., для нас важна любая помощь . В качестве благодарности мы отключим Вам всю рекламу на сайте (укажите свой ник в строку Ваше имя)!

×
  
Magnet ссылка

Преступление в маленьком городе / Small Town Crime (Йен Нелмс) [2017, Триллер, криминал, детектив, HDRip от R.G. Resident] MVO [Jaskier] pb.wtf

Преступление в маленьком городе через торрент pb.wtf

Размер: 1.45 GB | Добавлен: 3 года 1 мес. назад | Торрент скачан:300 раз
Скачать  

09-06-2018 08:36 Преступление в маленьком городе Скачать торрент  

Преступление в маленьком городе / Small Town Crime
««Doing the right thing the wrong way»»

Год выпуска: 2017
Страна: США
Жанр: триллер, криминал, детектив
Продолжительность: 01:32:06
Перевод: Профессиональный многоголосый [Jaskier] - присутствует ненормативная лексика
Субтитры: Нет
Режиссер: Eshom Nelms, Йен Нелмс
В ролях:

Джон Хоукс (Mike Kendall), Энтони Андерсон (Teddy Banks), Октавия Спенсер (Kelly Banks), Роберт Форстер (Steve Yendel), Клифтон Коллинз мл. (Mood), Джереми Рэчфорд (Orthopedic), Джеймс Лэфферти (Tony Lama), Майкл Вартан (Detective Crawford), Дэниел Сунджата (Detective Whitman), Дон Харви (Randy), Стефани Скотт (Ivy), Кейти Лотц (Heidi)
Описание:
Отставной полицейский, злоупотребляющий выпивкой, находит тело убитой девушки. Он берется за расследование как за последний шанс на реабилитацию, однако рьяные поиски убийцы заводят героя в столь темные дебри, что под угрозой оказываются все его близкие...
Рейтинг:
rating
MPAA: R - Лицам до 17 лет обязательно присутствие взрослого
Качество: HDRip
Формат: AVI
Видео: XviD, 720x304, 1803 Kbps, 23.976 fps, 0,344 bpp
Аудио: русский / AC3 / 5.1 / 48 kHz / 448 kbps / |MVO|

Общее
Полное имя : F:\Small.Town.Crime.2017.MVO.HDRip.R.G.Resident.avi
Формат : AVI
Формат/Информация : Audio Video Interleave
Размер файла : 1,45 Гбайт
Продолжительность : 1 ч. 32 м.
Общий поток : 2260 Кбит/сек
Программа кодирования : VirtualDubModRus 1.5.10.2 (build 2542/release)
Библиотека кодирования : VirtualDubMod build 2542/release

Видео
Идентификатор : 0
Формат : MPEG-4 Visual
Профиль формата : Advanced Simple@L5
Настройки формата : BVOP1 / Custom Matrix
Параметр BVOP формата : 1
Параметр QPel формата : Нет
Параметр GMC формата : Без точки перехода
Параметр матрицы формата : Выборочная
Идентификатор кодека : XVID
Идентификатор кодека/Подсказка : XviD
Продолжительность : 1 ч. 32 м.
Битрейт : 1803 Кбит/сек
Ширина : 720 пикселей
Высота : 304 пикселя
Соотношение сторон : 2,35:1
Частота кадров : 23,976 (24000/1001) кадра/сек
Цветовое пространство : YUV
Субдискретизация насыщенности : 4:2:0
Битовая глубина : 8 бит
Тип развёртки : Прогрессивная
Метод сжатия : С потерями
Бит/(Пиксели*Кадры) : 0.344
Размер потока : 1,16 Гбайт (80%)
Библиотека кодирования : XviD 73

Аудио
Идентификатор : 1
Формат : AC-3
Формат/Информация : Audio Coding 3
Идентификатор кодека : 2000
Продолжительность : 1 ч. 32 м.
Вид битрейта : Постоянный
Битрейт : 448 Кбит/сек
Каналы : 6 каналов
Расположение каналов : Front: L C R, Side: L R, LFE
Частота : 48,0 КГц
Частота кадров : 31,250 кадров/сек (1536 SPF)
Битовая глубина : 16 бит
Метод сжатия : С потерями
Размер потока : 295 Мбайт (20%)
Выравнивание : Разделение по промежуткам
Продолжительность промежутка : 42 мс. (1,00 видеокадр)
Время предзагрузки промежутка : 500 мс.
ServiceKind/String : Complete Main
pb.wtf



Скачать Преступление в маленьком городе через торрент http://i77.fastpic.ru/big/2016/0417/a7/808a646271c761f7c7d87df3d366b3a7.png Скачать фильм Преступление в маленьком городе через торрент бесплантно в хорошем качестве Описание: Отставной полицейский, злоупотребляющий выпивкой, находит тело убитой девушки. Он берется за расследование как за последний шанс ... 8.3 10 15
Info! Золотая раздача, скачанное не засчитывается.
Торрент: Зарегистрирован [2018-06-09 08:58] · скачан: 300 раз
Статус: √ проверено
Размер: 1.45 GB
Как cкачать? Как скачать Преступление в маленьком городе через торрент | UTorrent

% Раздел Тема Автор DL S | L
Фильмы [HD 720p, 1080p] (Хороший звук DUB, MVO) [ 5.76 GB ] Преступление в маленьком городе / Small Town Crime [2017 BDRip 1080p] MVO [Jaskier] -Lexx- Скачать
1 | 0
Фильмы (WEB-DL 720p, 1080p) [ 3.43 GB ] Преступление в маленьком городе / Small Town Crime [2017 WEB-DL 1080p] MVO [Jaskier] bober100 Скачать
1 | 0

28-11-2019 20:33  

Отключить всю рекламу на сайте

    Дорогой пользователь! Огромная просьба, поблагодарите релизера, оцените раздачу и оставьте свои комментарий, если Вы скачали Преступление в маленьком городе через торрент бесплатно! Внесите свою лепту в развитие PiratBit!
    Комментировать посты могут только пользователи прошедшие не сложную регистрацию
    Показать сообщения:    

    Преступление в маленьком городе через торрент
    Скачать бесплатно Преступление в маленьком городе
    Преступление в маленьком городе скачать торрент
    Преступление в маленьком городе смотреть онлайн
    Cкачать фильм Преступление в маленьком городе бесплатно
    Преступление в маленьком городе скачать торрент в хорошем качестве
    Преступление в маленьком городе смотреть онлайн бесплатно в хорошем качестве


    Вы не можете начинать темы
    Вы не можете отвечать на сообщения
    Вы не можете редактировать свои сообщения
    Вы не можете удалять свои сообщения
    Вы не можете голосовать в опросах
    Вы не можете прикреплять файлы к сообщениям
    Вы можете скачивать файлы