Ссылка на приватное зеркало всего за 1$. Внимание количество ограничено!!!

OK

1+1

iTunes

мы

OK

1

WEB-DLRip

Джокер

Пифагор

Ведьмак / The Witcher сериал

iTunes

ПШазам

ОК

Оно 2

iTunes

30
pack

Вам бонус

ВАЖНО

!!Акция!!

Alien_RageХит недели

RePack

Resident Evil 21

ИГРА 18+

pack

RePack

jed

RePack

fifa19

RePack

Assassins Creed: Odyssey

RePack

NEED FOR SPEED™ PAYBACK

4 сезон

9 сезон

Бесстыжие 9 сезон

Все сериалы

все сериалы на PB.wtf

RePack

FAR CRY 5
  

Всегда возвращается / Vuelven (Исса Лопес) [2017, ужасы, фэнтези, WEB-DL 720p] MVO [КОЛОБОК] pb.wtf

Всегда возвращается через торрент pb.wtf

Размер: 2.82 GB | Добавлен: 1 год 7 мес. назад | Торрент скачан:83 раза
Скачать  

09-06-2018 11:14 Всегда возвращается Скачать торрент  

Всегда возвращается / VuelvenГод выпуска: 2017
Страна: Мексика
Жанр: ужасы, фэнтези
Продолжительность: 01:24:25
Перевод: Любительский (многоголосый) | КОЛОБОК
Субтитры: отсутствуют

Режиссер: Исса Лопес

rating

В ролях:

Паола Лара, Ансель Касильяс, Родриго Кортес, Янис Герреро, Теноч Уэрта, Хуан Рамон Лопес

Описание:

Темная сказка о банде пятерых детей, пытающихся выжить в городе, полном насилия. В их руки случайно попадает телефон, где записаны убийства похищенных людей и за ними начинают охоту мафиози. У одного из подростков, девочки Эстреллы, есть 3 желания. Но после того как ее пропавшая мать вернулась мертвой, девочка понимает, что когда находишься в центре жестокости и насилия, желания никогда не сбываются так, как вы хотите

Качество: WEB-DL 720p
Формат: MKV

Видео: h.264, 4 394 Кбит/с, 1280x536
Аудио: Русский, (AC3, 2 ch, 384 Кбит/с)
скриншот  скриншот  скриншот  

Общее
Уникальный идентификатор : 172513091047997363673953773248266209484 (0x81C8D012AA62B1BCAF78B64662F188CC)
Полное имя : F:\Vuelven.2017.Pk.WEB_DL.72Op.mkv
Формат : Matroska
Версия формата : Version 2
Размер файла : 2,82 Гбайт
Продолжительность : 1 ч. 24 м.
Режим общего битрейта : Переменный
Общий поток : 4780 Кбит/сек
Дата кодирования : UTC 2018-06-08 18:51:46
Программа кодирования : mkvmerge v8.3.0 ('Over the Horizon') 64bit
Библиотека кодирования : libebml v1.3.1 + libmatroska v1.4.2

Видео
Идентификатор : 1
Формат : AVC
Формат/Информация : Advanced Video Codec
Профиль формата : High@L4.1
Параметр CABAC формата : Да
Параметр RefFrames формата : 4 кадра
Идентификатор кодека : V_MPEG4/ISO/AVC
Продолжительность : 1 ч. 24 м.
Вид битрейта : Переменный
Битрейт : 4394 Кбит/сек
Максимальный битрейт : 5000 Кбит/сек
Ширина : 1280 пикселей
Высота : 536 пикселей
Соотношение сторон : 2,40:1
Режим частоты кадров : Постоянный
Частота кадров : 23,976 (24000/1001) кадра/сек
Стандарт вещания : Component
Цветовое пространство : YUV
Субдискретизация насыщенности : 4:2:0
Битовая глубина : 8 бит
Тип развёртки : Прогрессивная
Бит/(Пиксели*Кадры) : 0.261
Размер потока : 2,54 Гбайт (90%)
Default : Да
Forced : Нет
Цветовой диапазон : Limited
Основные цвета : BT.709
Характеристики трансфера : BT.709
Коэффициенты матрицы : BT.709

Аудио
Идентификатор : 2
Формат : AC-3
Формат/Информация : Audio Coding 3
Расширение режима : CM (complete main)
Параметр Endianness формата : Big
Идентификатор кодека : A_AC3
Продолжительность : 1 ч. 24 м.
Вид битрейта : Постоянный
Битрейт : 384 Кбит/сек
Каналы : 2 канала
Расположение каналов : Front: L R
Частота : 48,0 КГц
Частота кадров : 31,250 кадров/сек (1536 spf)
Метод сжатия : С потерями
Размер потока : 232 Мбайт (8%)
Default : Да
Forced : Нет

pb.wtf



Скачать Всегда возвращается через торрент http://img12.lostpic.net/2018/06/09/2edf0832a262e3676424e43923b83155.jpg Скачать фильм Всегда возвращается через торрент бесплантно в хорошем качестве Описание: Темная сказка о банде пятерых детей, пытающихся выжить в городе, полном насилия. В их руки случайно попадает телефон, где ... 7.8 10 4
Торрент: Зарегистрирован [2018-06-09 11:14] · скачан: 83 раз
Статус: T временная
Размер: 2.82 GB
Как cкачать? Как скачать Всегда возвращается через торрент | qTorrent

% Раздел Тема Автор DL S | L
T Фильмы (мультфильмы) cо спонсором показа (Новинки AVI/MKV) [ 1.35 GB ] Всегда возвращается / Vuelven [2017 WEB-DLRip] MVO [КОЛОБОК] bober100 Скачать
2 | 0

28-11-2019 20:33  

Отключить всю рекламу на сайте

    Дорогой пользователь! Огромная просьба, поблагодарите релизера, оцените раздачу и оставьте свои комментарий, если Вы скачали Всегда возвращается через торрент бесплатно! Внесите свою лепту в развитие PiratBit!
    Комментировать посты могут только пользователи прошедшие не сложную регистрацию
    Показать сообщения:    

    Всегда возвращается через торрент
    Скачать бесплатно Всегда возвращается
    Всегда возвращается скачать торрент
    Всегда возвращается смотреть онлайн
    Cкачать фильм Всегда возвращается бесплатно
    Всегда возвращается скачать торрент в хорошем качестве
    Всегда возвращается смотреть онлайн бесплатно в хорошем качестве


    Вы не можете начинать темы
    Вы не можете отвечать на сообщения
    Вы не можете редактировать свои сообщения
    Вы не можете удалять свои сообщения
    Вы не можете голосовать в опросах
    Вы не можете прикреплять файлы к сообщениям
    Вы можете скачивать файлы