Ссылка на приватное зеркало всего за 1$. Внимание количество ограничено!!!

OK

1+1

iTunes

мы

OK

1

WEB-DLRip

Джокер

Пифагор

Ведьмак / The Witcher сериал

iTunes

ПШазам

ОК

Оно 2

iTunes

30
pack

Вам бонус

ВАЖНО

!!Акция!!

Alien_RageХит недели

RePack

Resident Evil 21

ИГРА 18+

pack

RePack

jed

RePack

fifa19

RePack

Assassins Creed: Odyssey

RePack

NEED FOR SPEED™ PAYBACK

4 сезон

9 сезон

Бесстыжие 9 сезон

Все сериалы

все сериалы на PB.wtf

RePack

FAR CRY 5
  

Расчудесный пурпурный неон / Dreaming Purple Neon (Тодд Шитс) [2016, Ужасы, WEB-DL 720p] MVO ["Синема УС"] pb.wtf

Расчудесный пурпурный неон через торрент pb.wtf

Размер: 3.75 GB | Добавлен: 1 год 7 мес. назад | Торрент скачан:23 раза
Скачать  

09-06-2018 14:18 Расчудесный пурпурный неон Скачать торрент  

Расчудесный пурпурный неон / Dreaming Purple NeonГод выпуска: 2016
Страна: США
Жанр: Ужасы
Продолжительность: 01:50:52
Перевод: Любительский (многоголосый) | "Синема УС"
Субтитры: отсутствуют

Режиссер: Тодд Шитс

rating

В ролях:

Джереми Эдвардс, Эли ДеДжир, Милли Фриман, Грант Конрад, Джек МакКорд, Ник Рэндол, Рикки Фарр, Джолин Лофтин, Анна Рохас-Плумберг

Описание:

Вернувшись после долгого отсутствия в родной город, Даллас обнаруживает, что до боли знакомые улицы наводнены странным наркотиком под названием "пурпурный неон", и хотя распространяют его простые бандиты, но производит его не очередной Уолтер Уайт, а глава сатанинской секты и потомственный алхимик.

Качество: WEB-DL 720p
Формат: MKV

Видео: h.264, 4 451 Кбит/с, 1280x720
Аудио: Русский, (AC3, 2 ch, 384 Кбит/с)
скриншот  скриншот  скриншот  

Общее
Уникальный идентификатор : 210321558638099794275902814397276028478 (0x9E3A757227EAEAB9A463BA8B776AFE3E)
Полное имя : F:\Dreaming Purple Neon.2016.Pk.WEB-DL.72Op.mkv
Формат : Matroska
Версия формата : Version 2
Размер файла : 3,75 Гбайт
Продолжительность : 1 ч. 50 м.
Режим общего битрейта : Переменный
Общий поток : 4837 Кбит/сек
Дата кодирования : UTC 2018-06-07 20:06:09
Программа кодирования : mkvmerge v8.3.0 ('Over the Horizon') 64bit
Библиотека кодирования : libebml v1.3.1 + libmatroska v1.4.2

Видео
Идентификатор : 1
Формат : AVC
Формат/Информация : Advanced Video Codec
Профиль формата : High@L4.1
Параметр CABAC формата : Да
Параметр RefFrames формата : 4 кадра
Идентификатор кодека : V_MPEG4/ISO/AVC
Продолжительность : 1 ч. 50 м.
Вид битрейта : Переменный
Битрейт : 4451 Кбит/сек
Максимальный битрейт : 5000 Кбит/сек
Ширина : 1280 пикселей
Высота : 720 пикселей
Соотношение сторон : 16:9
Режим частоты кадров : Постоянный
Частота кадров : 23,976 (24000/1001) кадра/сек
Стандарт вещания : Component
Цветовое пространство : YUV
Субдискретизация насыщенности : 4:2:0
Битовая глубина : 8 бит
Тип развёртки : Прогрессивная
Бит/(Пиксели*Кадры) : 0.197
Размер потока : 3,37 Гбайт (90%)
Default : Да
Forced : Нет
Цветовой диапазон : Limited
Основные цвета : BT.709
Характеристики трансфера : BT.709
Коэффициенты матрицы : BT.709

Аудио
Идентификатор : 2
Формат : AC-3
Формат/Информация : Audio Coding 3
Расширение режима : CM (complete main)
Параметр Endianness формата : Big
Идентификатор кодека : A_AC3
Продолжительность : 1 ч. 50 м.
Вид битрейта : Постоянный
Битрейт : 384 Кбит/сек
Каналы : 2 канала
Расположение каналов : Front: L R
Частота : 48,0 КГц
Частота кадров : 31,250 кадров/сек (1536 spf)
Метод сжатия : С потерями
Размер потока : 305 Мбайт (8%)
Default : Да
Forced : Нет

pb.wtf



Скачать Расчудесный пурпурный неон через торрент http://img12.lostpic.net/2018/06/09/8619e83ac38ec517b3c4c8533a48de25.jpg Скачать фильм Расчудесный пурпурный неон через торрент бесплантно в хорошем качестве Описание: Вернувшись после долгого отсутствия в родной город, Даллас обнаруживает, что до боли знакомые улицы наводнены странным наркотиком ... 8.2 10 5
Торрент: Зарегистрирован [2018-06-09 14:34] · скачан: 23 раз
Статус: T временная
Размер: 3.75 GB
Как cкачать? Как скачать Расчудесный пурпурный неон через торрент | qTorrent

% Раздел Тема Автор DL S | L
T Фильмы (мультфильмы) cо спонсором показа (Новинки AVI/MKV) [ 1.37 GB ] Расчудесный пурпурный неон / Dreaming Purple Neon [2016 WEB-DLRip] MVO ["Синема УС"] bober100 Скачать
1 | 0

28-11-2019 20:33  

Отключить всю рекламу на сайте

09-06-2018 15:23 Расчудесный пурпурный неон Скачать торрент  

подозрительно высокая оценка)pb.wtf



    Дорогой пользователь! Огромная просьба, поблагодарите релизера, оцените раздачу и оставьте свои комментарий, если Вы скачали Расчудесный пурпурный неон через торрент бесплатно! Внесите свою лепту в развитие PiratBit!
    Комментировать посты могут только пользователи прошедшие не сложную регистрацию
    Показать сообщения:    

    Расчудесный пурпурный неон через торрент
    Скачать бесплатно Расчудесный пурпурный неон
    Расчудесный пурпурный неон скачать торрент
    Расчудесный пурпурный неон смотреть онлайн
    Cкачать фильм Расчудесный пурпурный неон бесплатно
    Расчудесный пурпурный неон скачать торрент в хорошем качестве
    Расчудесный пурпурный неон смотреть онлайн бесплатно в хорошем качестве


    Вы не можете начинать темы
    Вы не можете отвечать на сообщения
    Вы не можете редактировать свои сообщения
    Вы не можете удалять свои сообщения
    Вы не можете голосовать в опросах
    Вы не можете прикреплять файлы к сообщениям
    Вы можете скачивать файлы