Ссылка на приватное зеркало всего за 1$. Внимание количество ограничено!!!

OK

1+1

iTunes

мы

OK

1

WEB-DLRip

Джокер

Пифагор

Ведьмак / The Witcher сериал

iTunes

ПШазам

ОК

Оно 2

iTunes

30
pack

Вам бонус

ВАЖНО

!!Акция!!

Alien_RageХит недели

RePack

Resident Evil 21

ИГРА 18+

pack

RePack

jed

RePack

fifa19

RePack

Assassins Creed: Odyssey

RePack

NEED FOR SPEED™ PAYBACK

4 сезон

9 сезон

Бесстыжие 9 сезон

Все сериалы

все сериалы на PB.wtf

RePack

FAR CRY 5
  

Малыш Спиру / Le petit Spirou (Николя Бери) [2017, комедия, BDRip 720p] MVO ["Синема УС"] pb.wtf

Малыш Спиру через торрент pb.wtf

Размер: 4.09 GB | Добавлен: 1 год 7 мес. назад | Торрент скачан:28 раз
Скачать  

09-06-2018 17:20 Малыш Спиру Скачать торрент  

Малыш Спиру / Le petit SpirouГод выпуска: 2017
Страна: Франция, Бельгия
Жанр: комедия
Продолжительность: 01:27:51
Перевод: Любительский (многоголосый) | "Синема УС"
Субтитры: отсутствуют

Режиссер: Николя Бери

rating

В ролях:

Пьер Ришар, Армель, Наташа Ренье, Франсуа Дамиенс, Филипп Катерин, Джульетт Эвер

Описание:

Предки Малыша Спиру как минимум до пятого колена были высококлассными портье. Вот и его хотят отдать в закрытую школу профессиональных портье, чтобы династия не прерывалась. Но он пока не уверен, что готов бросить своих друзей из старой школы и девочку по имени Сюзет, с которой сидит за одной партой.

Качество: BDRip 720p
Формат: MKV

Видео: h.264, 6 218 Кбит/с, 1280x532
Аудио#1: Русский, (AC3, 2 ch, 448 Кбит/с)
скриншот  скриншот  скриншот  

Общее
Уникальный идентификатор : 213423700302350109897611601736584584479 (0xA08FE8D6A877C2FDB992C8601AA6DD1F)
Полное имя : F:\Le.Petit.Spirou.2017.P.BDRip.72Op_KOSHARA.mkv
Формат : Matroska
Версия формата : Version 2
Размер файла : 4,09 Гбайт
Продолжительность : 1 ч. 27 м.
Режим общего битрейта : Переменный
Общий поток : 6668 Кбит/сек
Дата кодирования : UTC 2018-06-09 03:01:39
Программа кодирования : mkvmerge v8.3.0 ('Over the Horizon') 64bit
Библиотека кодирования : libebml v1.3.1 + libmatroska v1.4.2

Видео
Идентификатор : 1
Формат : AVC
Формат/Информация : Advanced Video Codec
Профиль формата : High@L4.1
Параметр CABAC формата : Да
Параметр RefFrames формата : 4 кадра
Идентификатор кодека : V_MPEG4/ISO/AVC
Продолжительность : 1 ч. 27 м.
Вид битрейта : Переменный
Битрейт : 6218 Кбит/сек
Максимальный битрейт : 6900 Кбит/сек
Ширина : 1280 пикселей
Высота : 532 пикселя
Соотношение сторон : 2,40:1
Режим частоты кадров : Постоянный
Частота кадров : 23,976 (24000/1001) кадра/сек
Стандарт вещания : Component
Цветовое пространство : YUV
Субдискретизация насыщенности : 4:2:0
Битовая глубина : 8 бит
Тип развёртки : Прогрессивная
Бит/(Пиксели*Кадры) : 0.373
Размер потока : 3,74 Гбайт (91%)
Default : Да
Forced : Нет
Цветовой диапазон : Limited
Основные цвета : BT.709
Характеристики трансфера : BT.709
Коэффициенты матрицы : BT.709

Аудио
Идентификатор : 2
Формат : AC-3
Формат/Информация : Audio Coding 3
Расширение режима : CM (complete main)
Параметр Endianness формата : Big
Идентификатор кодека : A_AC3
Продолжительность : 1 ч. 27 м.
Вид битрейта : Постоянный
Битрейт : 448 Кбит/сек
Каналы : 2 канала
Расположение каналов : Front: L R
Частота : 48,0 КГц
Частота кадров : 31,250 кадров/сек (1536 spf)
Метод сжатия : С потерями
Размер потока : 282 Мбайт (7%)
Default : Да
Forced : Нет

pb.wtf



Скачать Малыш Спиру через торрент http://img12.lostpic.net/2018/06/09/11a2efbd709329c4860449c675901f8c.jpg Скачать фильм Малыш Спиру через торрент бесплантно в хорошем качестве Описание: Предки Малыша Спиру как минимум до пятого колена были высококлассными портье. Вот и его хотят отдать в закрытую школу ... 10 10 2
Торрент: Зарегистрирован [2018-06-09 17:20] · скачан: 28 раз
Статус: # сомнительно
Размер: 4.09 GB
Как cкачать? Как скачать Малыш Спиру через торрент | qTorrent

% Раздел Тема Автор DL S | L
T Фильмы (мультфильмы) cо спонсором показа (Новинки AVI/MKV) [ 1.37 GB ] Малыш Спиру / Le petit Spirou [2017 HDRip] MVO ["Синема УС"] bober100 Скачать
1 | 0

28-11-2019 20:33  

Отключить всю рекламу на сайте

    Дорогой пользователь! Огромная просьба, поблагодарите релизера, оцените раздачу и оставьте свои комментарий, если Вы скачали Малыш Спиру через торрент бесплатно! Внесите свою лепту в развитие PiratBit!
    Комментировать посты могут только пользователи прошедшие не сложную регистрацию
    Показать сообщения:    

    Малыш Спиру через торрент
    Скачать бесплатно Малыш Спиру
    Малыш Спиру скачать торрент
    Малыш Спиру смотреть онлайн
    Cкачать фильм Малыш Спиру бесплатно
    Малыш Спиру скачать торрент в хорошем качестве
    Малыш Спиру смотреть онлайн бесплатно в хорошем качестве


    Вы не можете начинать темы
    Вы не можете отвечать на сообщения
    Вы не можете редактировать свои сообщения
    Вы не можете удалять свои сообщения
    Вы не можете голосовать в опросах
    Вы не можете прикреплять файлы к сообщениям
    Вы можете скачивать файлы