Ссылка на приватное зеркало всего за 1$. Внимание количество ограничено!!!

OK

1+1

iTunes

мы

OK

1

WEB-DLRip

Джокер

Пифагор

Ведьмак / The Witcher сериал

iTunes

ПШазам

ОК

Оно 2

iTunes

30
pack

Вам бонус

ВАЖНО

!!Акция!!

Alien_RageХит недели

RePack

Resident Evil 21

ИГРА 18+

pack

RePack

jed

RePack

fifa19

RePack

Assassins Creed: Odyssey

RePack

NEED FOR SPEED™ PAYBACK

4 сезон

9 сезон

Бесстыжие 9 сезон

Все сериалы

все сериалы на PB.wtf

RePack

FAR CRY 5
  

Наши сумасшедшие годы / Nos années folles (Андре Тешине) [2017, Драма, BDRip 720p] MVO [КОЛОБОК] pb.wtf

Наши сумасшедшие годы через торрент pb.wtf

Размер: 4.73 GB | Добавлен: 1 год 7 мес. назад | Торрент скачан:29 раз
Скачать  

09-06-2018 17:35 Наши сумасшедшие годы Скачать торрент  

Наши сумасшедшие годы / Nos années follesГод выпуска: 2017
Страна: Франция
Жанр: Драма
Продолжительность: 01:44:45
Перевод: Любительский (многоголосый) | КОЛОБОК
Субтитры: отсутствуют

Режиссер: Андре Тешине

rating

В ролях:

Клоди Жансак, Селин Саллетт, Грегуар Лепренс-Ренге, Мишель Фо, Вирджиния Прадаль, Джонатан Луис, Пьер Деладоншам

Описание:

Основанная на реальных событиях история о дезертире Первой мировой войны, который с помощью жены проводит десять лет под видом женщины. После объявления амнистии он пытается вернуться к жизни в качестве мужчины.

Качество: BDRip 720p
Формат: MKV

Видео: h.264, 6017 kb/s, 1280x696
Аудио#1: Русский (AC3, 2 ch, 448 Кбит/с)
скриншот  скриншот  скриншот  

Общее
Уникальный идентификатор : 244037762912107959506072383707273175554 (0xB797F6A8F17C0031B3F6AF3047932202)
Полное имя : F:\Nos.Annees.Folles.2017.Pk.BDRip.72Op_KOSHARA.mkv
Формат : Matroska
Версия формата : Version 2
Размер файла : 4,73 Гбайт
Продолжительность : 1 ч. 44 м.
Режим общего битрейта : Переменный
Общий поток : 6467 Кбит/сек
Дата кодирования : UTC 2018-06-09 04:03:46
Программа кодирования : mkvmerge v8.3.0 ('Over the Horizon') 64bit
Библиотека кодирования : libebml v1.3.1 + libmatroska v1.4.2

Видео
Идентификатор : 1
Формат : AVC
Формат/Информация : Advanced Video Codec
Профиль формата : High@L4.1
Параметр CABAC формата : Да
Параметр RefFrames формата : 4 кадра
Идентификатор кодека : V_MPEG4/ISO/AVC
Продолжительность : 1 ч. 44 м.
Вид битрейта : Переменный
Битрейт : 6017 Кбит/сек
Максимальный битрейт : 6800 Кбит/сек
Ширина : 1280 пикселей
Высота : 696 пикселей
Соотношение сторон : 1,85:1
Режим частоты кадров : Постоянный
Частота кадров : 23,976 (24000/1001) кадра/сек
Стандарт вещания : Component
Цветовое пространство : YUV
Субдискретизация насыщенности : 4:2:0
Битовая глубина : 8 бит
Тип развёртки : Прогрессивная
Бит/(Пиксели*Кадры) : 0.276
Размер потока : 4,31 Гбайт (91%)
Default : Да
Forced : Нет
Цветовой диапазон : Limited
Основные цвета : BT.709
Характеристики трансфера : BT.709
Коэффициенты матрицы : BT.709

Аудио
Идентификатор : 2
Формат : AC-3
Формат/Информация : Audio Coding 3
Расширение режима : CM (complete main)
Параметр Endianness формата : Big
Идентификатор кодека : A_AC3
Продолжительность : 1 ч. 44 м.
Вид битрейта : Постоянный
Битрейт : 448 Кбит/сек
Каналы : 2 канала
Расположение каналов : Front: L R
Частота : 48,0 КГц
Частота кадров : 31,250 кадров/сек (1536 spf)
Метод сжатия : С потерями
Размер потока : 336 Мбайт (7%)
Default : Да
Forced : Нет

pb.wtf



Скачать Наши сумасшедшие годы через торрент http://img12.lostpic.net/2018/06/09/3708c278e3836a60251ddb7fa33772b4.jpg Скачать фильм Наши сумасшедшие годы через торрент бесплантно в хорошем качестве Описание: Основанная на реальных событиях история о дезертире Первой мировой войны, который с помощью жены проводит десять лет под видом ... 10 10 4
Торрент: Зарегистрирован [2018-06-09 17:35] · скачан: 29 раз
Статус: # сомнительно
Размер: 4.73 GB
Как cкачать? Как скачать Наши сумасшедшие годы через торрент | qTorrent

% Раздел Тема Автор DL S | L
T Фильмы 2017 [DVDrip, WEB-DLRip, HDrip] (DUB, MVO) [ 1.46 GB ] Наши сумасшедшие годы / Nos annйes folles [2017 Мело Военный HDRip Любительский Студия "Колобок"] oleg8 Скачать
1 | 0
T Фильмы (мультфильмы) cо спонсором показа (Новинки AVI/MKV) [ 1.37 GB ] Наши сумасшедшие годы / Nos années folles [2017 HDRip] MVO [КОЛОБОК] bober100 Скачать
1 | 0

28-11-2019 20:33  

Отключить всю рекламу на сайте

    Дорогой пользователь! Огромная просьба, поблагодарите релизера, оцените раздачу и оставьте свои комментарий, если Вы скачали Наши сумасшедшие годы через торрент бесплатно! Внесите свою лепту в развитие PiratBit!
    Комментировать посты могут только пользователи прошедшие не сложную регистрацию
    Показать сообщения:    

    Наши сумасшедшие годы через торрент
    Скачать бесплатно Наши сумасшедшие годы
    Наши сумасшедшие годы скачать торрент
    Наши сумасшедшие годы смотреть онлайн
    Cкачать фильм Наши сумасшедшие годы бесплатно
    Наши сумасшедшие годы скачать торрент в хорошем качестве
    Наши сумасшедшие годы смотреть онлайн бесплатно в хорошем качестве


    Вы не можете начинать темы
    Вы не можете отвечать на сообщения
    Вы не можете редактировать свои сообщения
    Вы не можете удалять свои сообщения
    Вы не можете голосовать в опросах
    Вы не можете прикреплять файлы к сообщениям
    Вы можете скачивать файлы