Ссылка на приватное зеркало всего за 1$. Внимание количество ограничено!!!

OK

1+1

iTunes

мы

OK

1

WEB-DLRip

Джокер

Пифагор

Ведьмак / The Witcher сериал

iTunes

ПШазам

ОК

Оно 2

iTunes

30
pack

Вам бонус

ВАЖНО

!!Акция!!

Alien_RageХит недели

RePack

Resident Evil 21

ИГРА 18+

pack

RePack

jed

RePack

fifa19

RePack

Assassins Creed: Odyssey

RePack

NEED FOR SPEED™ PAYBACK

4 сезон

9 сезон

Бесстыжие 9 сезон

Все сериалы

все сериалы на PB.wtf

RePack

FAR CRY 5
  

Коротышка: побег века / Chapo: el escape del siglo (Аксель Уригас) [2016, криминал, WEB-DL 720p] MVO ["Синема УС"] pb.wtf

Коротышка: побег века через торрент pb.wtf

Размер: 3.01 GB | Добавлен: 1 год 7 мес. назад | Торрент скачан:47 раз
Скачать  

09-06-2018 18:05 Коротышка: побег века Скачать торрент  

Коротышка: побег века / Chapo: el escape del sigloГод выпуска: 2016
Страна: Мексика
Жанр: криминал
Продолжительность: 01:29:37
Перевод: Любительский (многоголосый) | "Синема УС"
Субтитры: отсутствуют

Режиссер: Аксель Уригас

rating

В ролях:

Иринео Альварес, Хосе Сефами, Кристофф, Тельма Алвес, Горацио Кастело, Моника Андреа Фредиго, Кристиан Гонсалес, Эдгардо Гонсалес, Энрике Гутьеррес, Армандо Эрнандес

Описание:

После того как американский спецназ ликвидировал Усаму бен Ладена, одной из наиболее колоритных фигур в списках самых разыскиваемых преступников стал мексиканский наркобарон Хоакин Гузман Лоэра по кличке Эль Чапо (Коротышка). Однако в феврале 2014 года он был задержан и помещен в тюрьму особо строгого режима Альтиплано. Казалось бы, на этом криминальная карьера главаря картеля «Синалоа» завершилась. Но в ночь на 12 июля Коротышка исчез из своей одиночной камеры. Причем сделать это ему удалось в лучших традициях голливудских блокбастеров (Лента.ру). После этого побега среди Правительства и криминальных группировок Мексики и Соединённых Штатов разворачивается настоящая война за владение путями наркоторговли. Они сходятся только в одном: Коротышку нужно убрать с пути.

Качество: WEB-DL 720p
Формат: MKV

Видео: h.264, 4 415 kb/s, 1280x720
Аудио#1: Русский, (AC3, 2 ch, 384 Кбит/с)
скриншот  скриншот  скриншот  

Общее
Уникальный идентификатор : 191908673323794884291325189013304810462 (0x9060441C20A788B0B7787A43A0109BDE)
Полное имя : F:\Chapo.el.escape.del.siglo.2016.P.WEB-DL.72Op_KOSHARA.mkv
Формат : Matroska
Версия формата : Version 2
Размер файла : 3,01 Гбайт
Продолжительность : 1 ч. 29 м.
Режим общего битрейта : Переменный
Общий поток : 4800 Кбит/сек
Дата кодирования : UTC 2018-06-07 19:28:27
Программа кодирования : mkvmerge v8.3.0 ('Over the Horizon') 64bit
Библиотека кодирования : libebml v1.3.1 + libmatroska v1.4.2

Видео
Идентификатор : 1
Формат : AVC
Формат/Информация : Advanced Video Codec
Профиль формата : High@L4.1
Параметр CABAC формата : Да
Параметр RefFrames формата : 4 кадра
Идентификатор кодека : V_MPEG4/ISO/AVC
Продолжительность : 1 ч. 29 м.
Вид битрейта : Переменный
Битрейт : 4415 Кбит/сек
Максимальный битрейт : 5000 Кбит/сек
Ширина : 1280 пикселей
Высота : 720 пикселей
Соотношение сторон : 16:9
Режим частоты кадров : Постоянный
Частота кадров : 23,976 (24000/1001) кадра/сек
Стандарт вещания : Component
Цветовое пространство : YUV
Субдискретизация насыщенности : 4:2:0
Битовая глубина : 8 бит
Тип развёртки : Прогрессивная
Бит/(Пиксели*Кадры) : 0.196
Размер потока : 2,70 Гбайт (90%)
Default : Да
Forced : Нет
Цветовой диапазон : Limited
Основные цвета : BT.709
Характеристики трансфера : BT.709
Коэффициенты матрицы : BT.709

Аудио
Идентификатор : 2
Формат : AC-3
Формат/Информация : Audio Coding 3
Расширение режима : CM (complete main)
Параметр Endianness формата : Big
Идентификатор кодека : A_AC3
Продолжительность : 1 ч. 29 м.
Вид битрейта : Постоянный
Битрейт : 384 Кбит/сек
Каналы : 2 канала
Расположение каналов : Front: L R
Частота : 48,0 КГц
Частота кадров : 31,250 кадров/сек (1536 spf)
Метод сжатия : С потерями
Размер потока : 246 Мбайт (8%)
Default : Да
Forced : Нет

pb.wtf



Скачать Коротышка: побег века через торрент http://img12.lostpic.net/2018/06/09/4627fb6060bee1779bb46e9825bd690d.jpg Скачать фильм Коротышка: побег века через торрент бесплантно в хорошем качестве Описание: После того как американский спецназ ликвидировал Усаму бен Ладена, одной из наиболее колоритных фигур в списках самых ... 10 10 4
Торрент: Зарегистрирован [2018-06-09 18:05] · скачан: 47 раз
Статус: T временная
Размер: 3.01 GB
Как cкачать? Как скачать Коротышка: побег века через торрент | qTorrent

% Раздел Тема Автор DL S | L
T Фильмы (мультфильмы) cо спонсором показа (Новинки AVI/MKV) [ 1.37 GB ] Коротышка: побег века / Chapo: el escape del siglo [2016 WEB-DLRip] MVO ["Синема УС"] bober100 Скачать
1 | 0

28-11-2019 20:33  

Отключить всю рекламу на сайте


    Дорогой пользователь! Огромная просьба, поблагодарите релизера, оцените раздачу и оставьте свои комментарий, если Вы скачали Коротышка: побег века через торрент бесплатно! Внесите свою лепту в развитие PiratBit!
    Комментировать посты могут только пользователи прошедшие не сложную регистрацию
    Показать сообщения:    

    Коротышка: побег века через торрент
    Скачать бесплатно Коротышка: побег века
    Коротышка: побег века скачать торрент
    Коротышка: побег века смотреть онлайн
    Cкачать фильм Коротышка: побег века бесплатно
    Коротышка: побег века скачать торрент в хорошем качестве
    Коротышка: побег века смотреть онлайн бесплатно в хорошем качестве


    Вы не можете начинать темы
    Вы не можете отвечать на сообщения
    Вы не можете редактировать свои сообщения
    Вы не можете удалять свои сообщения
    Вы не можете голосовать в опросах
    Вы не можете прикреплять файлы к сообщениям
    Вы можете скачивать файлы