Ссылка на приватное зеркало всего за 1$. Внимание количество ограничено!!!

iTunes

iTunes

iTunes

1

iTunes

iTunes

iTunes

WEBRip

iTunes

30
pack

$ от Little Big

ВАЖНО

!!Акция!!

Alien_RageХит недели

RePack

Resident Evil 21

ИГРА 18+

pack

RePack

jed

!!Акция!!

Alien_Rage

RePack

fifa19

RePack

Assassins Creed: Odyssey

RePack

NEED FOR SPEED™ PAYBACK

4 сезон

9 сезон

Бесстыжие 9 сезон

Все сериалы

все сериалы на PB.wtf

RePack

FAR CRY 5
  

Парень как Джэйк / A Kid Like Jake (Сайлэс Ховард) [2018, драма, WEB-DL 720p] MVO ["Синема УС"] pb.wtf

Парень как Джэйк через торрент pb.wtf

Размер: 2.96 GB | Добавлен: 2 года 2 мес. назад | Торрент скачан:6 раз
Скачать  

09-06-2018 18:21 Парень как Джэйк Скачать торрент  

Парень как Джэйк / A Kid Like JakeГод выпуска: 2018
Страна: США
Жанр: драма
Продолжительность: 01:31:21
Перевод: Любительский (многоголосый) | "Синема УС"
Субтитры: отсутствуют

Режиссер: Сайлэс Ховард

rating

В ролях:

Приянка Чопра, Энн Дауд, Клэр Дэйнс, Шонетт Рене Уилсон, Джим Парсонс, Октавия Спенсер, Эми Ландекер, Аасиф Мандви, Джулия Тейлор Росс

Описание:

Четырёхлетний Джэйк - особенный ребёнок. Во-первых, он развит не по годам, а во-вторых, ему нравятся наряды принцесс. Это может стать «визитной карточкой» мальчика при поступлении в престижный детский сад, но чрезмерное рвение родителей угрожает семейному счастью.

Качество: WEB-DL 720p
Формат: MKV

Видео: h.264, 4 415 kb/s, 1280x688
Аудио#1: Русский, (AC3, 2 ch, 384 Кбит/с)
скриншот  скриншот  скриншот  

Общее
Уникальный идентификатор : 218266174306296851279299468844908110009 (0xA434893D7A708A2EAA99B0AD5DE760B9)
Полное имя : F:\A.Kid.Like.Jake.2018.P.WEB-DL.72Op_KOSHARA.mkv
Формат : Matroska
Версия формата : Version 2
Размер файла : 2,96 Гбайт
Продолжительность : 1 ч. 31 м.
Режим общего битрейта : Переменный
Общий поток : 4637 Кбит/сек
Дата кодирования : UTC 2018-06-07 18:24:10
Программа кодирования : mkvmerge v8.3.0 ('Over the Horizon') 64bit
Библиотека кодирования : libebml v1.3.1 + libmatroska v1.4.2

Видео
Идентификатор : 1
Формат : AVC
Формат/Информация : Advanced Video Codec
Профиль формата : High@L4.1
Параметр CABAC формата : Да
Параметр RefFrames формата : 4 кадра
Идентификатор кодека : V_MPEG4/ISO/AVC
Продолжительность : 1 ч. 31 м.
Вид битрейта : Переменный
Битрейт : 4415 Кбит/сек
Максимальный битрейт : 5000 Кбит/сек
Ширина : 1280 пикселей
Высота : 688 пикселей
Соотношение сторон : 1,85:1
Режим частоты кадров : Постоянный
Частота кадров : 23,976 (24000/1001) кадра/сек
Стандарт вещания : Component
Цветовое пространство : YUV
Субдискретизация насыщенности : 4:2:0
Битовая глубина : 8 бит
Тип развёртки : Прогрессивная
Бит/(Пиксели*Кадры) : 0.197
Размер потока : 2,65 Гбайт (90%)
Default : Да
Forced : Нет
Цветовой диапазон : Limited
Основные цвета : BT.709
Характеристики трансфера : BT.709
Коэффициенты матрицы : BT.709

Аудио
Идентификатор : 2
Формат : AC-3
Формат/Информация : Audio Coding 3
Расширение режима : CM (complete main)
Параметр Endianness формата : Big
Идентификатор кодека : A_AC3
Продолжительность : 1 ч. 31 м.
Вид битрейта : Постоянный
Битрейт : 384 Кбит/сек
Каналы : 2 канала
Расположение каналов : Front: L R
Частота : 48,0 КГц
Частота кадров : 31,250 кадров/сек (1536 spf)
Метод сжатия : С потерями
Размер потока : 251 Мбайт (8%)
Default : Да
Forced : Нет

pb.wtf



Скачать Парень как Джэйк через торрент http://img12.lostpic.net/2018/06/09/9f433c5b85f561e133b0f6a9b71db6e0.jpg Скачать фильм Парень как Джэйк через торрент бесплантно в хорошем качестве Описание: Четырёхлетний Джэйк - особенный ребёнок. Во-первых, он развит не по годам, а во-вторых, ему нравятся наряды принцесс. Это может ... 10 10 3
Торрент: Зарегистрирован [2018-06-09 18:21] · скачан: 6 раз
Статус: T временная
Размер: 2.96 GB
Как cкачать? Как скачать Парень как Джэйк через торрент | qTorrent

% Раздел Тема Автор DL S | L
T Фильмы (мультфильмы) cо спонсором показа (Новинки AVI/MKV) [ 1.37 GB ] Парень как Джэйк / A Kid Like Jake [2018 WEB-DLRip] MVO ["Синема УС"] bober100 Скачать
1 | 0

28-11-2019 20:33  

Отключить всю рекламу на сайте

    Дорогой пользователь! Огромная просьба, поблагодарите релизера, оцените раздачу и оставьте свои комментарий, если Вы скачали Парень как Джэйк через торрент бесплатно! Внесите свою лепту в развитие PiratBit!
    Комментировать посты могут только пользователи прошедшие не сложную регистрацию
    Показать сообщения:    

    Парень как Джэйк через торрент
    Скачать бесплатно Парень как Джэйк
    Парень как Джэйк скачать торрент
    Парень как Джэйк смотреть онлайн
    Cкачать фильм Парень как Джэйк бесплатно
    Парень как Джэйк скачать торрент в хорошем качестве
    Парень как Джэйк смотреть онлайн бесплатно в хорошем качестве


    Вы не можете начинать темы
    Вы не можете отвечать на сообщения
    Вы не можете редактировать свои сообщения
    Вы не можете удалять свои сообщения
    Вы не можете голосовать в опросах
    Вы не можете прикреплять файлы к сообщениям
    Вы можете скачивать файлы