Ссылка на приватное зеркало всего за 1$. Внимание количество ограничено!!!

OK

1+1

iTunes

мы

OK

1

WEB-DLRip

Джокер

Пифагор

Ведьмак / The Witcher сериал

iTunes

ПШазам

ОК

Оно 2

iTunes

30
pack

Вам бонус

ВАЖНО

!!Акция!!

Alien_RageХит недели

RePack

Resident Evil 21

ИГРА 18+

pack

RePack

jed

RePack

fifa19

RePack

Assassins Creed: Odyssey

RePack

NEED FOR SPEED™ PAYBACK

4 сезон

9 сезон

Бесстыжие 9 сезон

Все сериалы

все сериалы на PB.wtf

RePack

FAR CRY 5
  

Стоянка / The Layover (Уильям Х. Мэйси) [2017, комедия, BDRip 720p] DUB [Line] pb.wtf

Стоянка через торрент pb.wtf

Раздают: 1 [ 0 KB/s ]
Размер: 4.16 GB | Добавлен: 1 год 7 мес. назад | Торрент скачан:66 раз
Скачать  

09-06-2018 18:33 Стоянка Скачать торрент  

Стоянка / The LayoverГод выпуска: 2017
Страна: США
Жанр: комедия
Продолжительность: 01:28:45
Перевод: Дублированный | Line
Субтитры: отсутствуют

Режиссер: Уильям Х. Мэйси

rating

В ролях:

Кейт Аптон, Александра Даддарио, Мэтт Барр, Мэтт Джонс, Кэл Пенн, Майкл Беняер, Эми Анеке, Джо Нуньес, Элвин Сандерс, Роб Кордри

Описание:

История весёлых и нецеломудренных похождений двух лучших подруг, решивших сбежать от повседневных проблем в тропическое путешествие. Но из-за штормового предупреждения их самолет неожиданно меняет курс, и, что еще хуже, девушки вступают в борьбу за одного красавца-попутчика.

Качество: BDRip 720p
Формат: MKV

Видео: 6150 Kбит/с, 1280x534
Аудио#1: Русский, (AC3, 2 ch, 448 Кбит/с)
скриншот  скриншот  скриншот  

Общее
Уникальный идентификатор : 239091933657647672177151307380090996028 (0xB3DF6E73759CDB29921D02FC615C053C)
Полное имя : F:\The.layover.2O17.D.BDRip.72Op_KOSHARA.mkv
Формат : Matroska
Версия формата : Version 2
Размер файла : 4,16 Гбайт
Продолжительность : 1 ч. 30 м.
Режим общего битрейта : Переменный
Общий поток : 6600 Кбит/сек
Дата кодирования : UTC 2018-06-07 03:38:48
Программа кодирования : mkvmerge v8.3.0 ('Over the Horizon') 64bit
Библиотека кодирования : libebml v1.3.1 + libmatroska v1.4.2

Видео
Идентификатор : 1
Формат : AVC
Формат/Информация : Advanced Video Codec
Профиль формата : High@L4.1
Параметр CABAC формата : Да
Параметр RefFrames формата : 4 кадра
Идентификатор кодека : V_MPEG4/ISO/AVC
Продолжительность : 1 ч. 30 м.
Вид битрейта : Переменный
Битрейт : 6150 Кбит/сек
Максимальный битрейт : 6800 Кбит/сек
Ширина : 1280 пикселей
Высота : 534 пикселя
Соотношение сторон : 2,40:1
Режим частоты кадров : Постоянный
Частота кадров : 23,976 (24000/1001) кадра/сек
Стандарт вещания : Component
Цветовое пространство : YUV
Субдискретизация насыщенности : 4:2:0
Битовая глубина : 8 бит
Тип развёртки : Прогрессивная
Бит/(Пиксели*Кадры) : 0.367
Размер потока : 3,79 Гбайт (91%)
Default : Да
Forced : Нет
Цветовой диапазон : Limited
Основные цвета : BT.709
Характеристики трансфера : BT.709
Коэффициенты матрицы : BT.709

Аудио
Идентификатор : 2
Формат : AC-3
Формат/Информация : Audio Coding 3
Расширение режима : CM (complete main)
Параметр Endianness формата : Big
Идентификатор кодека : A_AC3
Продолжительность : 1 ч. 30 м.
Вид битрейта : Постоянный
Битрейт : 448 Кбит/сек
Каналы : 2 канала
Расположение каналов : Front: L R
Частота : 48,0 КГц
Частота кадров : 31,250 кадров/сек (1536 spf)
Метод сжатия : С потерями
Размер потока : 289 Мбайт (7%)
Default : Да
Forced : Нет

pb.wtf



Скачать Стоянка через торрент http://i94.fastpic.ru/big/2017/0901/d6/b5017b9cce0ff818cb5394256ce66bd6.jpg Скачать фильм Стоянка через торрент бесплантно в хорошем качестве Описание: История весёлых и нецеломудренных похождений двух лучших подруг, решивших сбежать от повседневных проблем в тропическое ... 10 10 4
Торрент: Зарегистрирован [2018-06-09 18:33] · скачан: 66 раз
Статус: # сомнительно
Размер: 4.16 GB
Как cкачать? Как скачать Стоянка через торрент | qTorrent

% Раздел Тема Автор DL S | L
Фильмы 2017 [DVDrip, WEB-DLRip, HDrip] (DUB, MVO) [ 1.45 GB ] Стоянка / The Layover [2017 HDRip] killermax2013 Скачать
5 | 0
T Фильмы (мультфильмы) cо спонсором показа (Новинки AVI/MKV) [ 1.37 GB ] Стоянка / The Layover [2017 HDRip] [Line] killermax2013 Скачать
2 | 0
# Фильмы (мультфильмы) cо спонсором показа (Новинки AVI/MKV) [ 7.01 GB ] Стоянка / The Layover [2017 BDRip 1080p] DUB [Line] bober100 Скачать
1 | 0
Фильмы без перевода [ 3.01 GB ] Стоянка / The Layover [2017 WEB-DL 1080p] [ENG] killermax2013 Скачать
1 | 0

28-11-2019 20:33  

Отключить всю рекламу на сайте

    Дорогой пользователь! Огромная просьба, поблагодарите релизера, оцените раздачу и оставьте свои комментарий, если Вы скачали Стоянка через торрент бесплатно! Внесите свою лепту в развитие PiratBit!
    Комментировать посты могут только пользователи прошедшие не сложную регистрацию
    Показать сообщения:    

    Стоянка через торрент
    Скачать бесплатно Стоянка
    Стоянка скачать торрент
    Стоянка смотреть онлайн
    Cкачать фильм Стоянка бесплатно
    Стоянка скачать торрент в хорошем качестве
    Стоянка смотреть онлайн бесплатно в хорошем качестве


    Вы не можете начинать темы
    Вы не можете отвечать на сообщения
    Вы не можете редактировать свои сообщения
    Вы не можете удалять свои сообщения
    Вы не можете голосовать в опросах
    Вы не можете прикреплять файлы к сообщениям
    Вы можете скачивать файлы