Ссылка на приватное зеркало всего за 1$. Внимание количество ограничено!!!

OK

1+1

iTunes

мы

OK

1

WEB-DLRip

Джокер

Пифагор

Ведьмак / The Witcher сериал

Лицензия

ПШазам

ОК

Оно 2

iTunes

30
pack

Вам бонус

ВАЖНО

!!Акция!!

Alien_RageХит недели

RePack

Resident Evil 21

ИГРА 18+

pack

RePack

jed

!!Акция!!

Alien_Rage

RePack

fifa19

RePack

Assassins Creed: Odyssey

RePack

NEED FOR SPEED™ PAYBACK

4 сезон

9 сезон

Бесстыжие 9 сезон

Все сериалы

все сериалы на PB.wtf

RePack

FAR CRY 5
  

Побег / The Escape (Доминик Сэвадж) [2017, драма, WEB-DL 1080p] DUB [Line] pb.wtf

Побег через торрент pb.wtf

Размер: 3.99 GB | Добавлен: 1 год 7 мес. назад | Торрент скачан:23 раза
Скачать  

09-06-2018 20:09 Побег Скачать торрент  

Побег / The EscapeГод выпуска: 2017
Страна: Великобритания
Жанр: драма
Продолжительность: 01:43:23
Перевод: Дублированный | Line
Субтитры: отсутствуют

Режиссер: Доминик Сэвадж

rating

В ролях:

Джемма Артертон, Доминик Купер, Фрэнсис Барбер, Марта Келлер, Монтсеррат Ломбард, Жалиль Леспер

Описание:

Фильм рассказывает о простой женщине, которой пришлось преодолеть много трудностей, но нашедшей в себе силы, чтобы познать себя и начать новую жизнь.

Качество: WEB-DL 1080p
Формат: MKV

Видео: h.264, 5139 kb/s, 1920x792
Аудио#1: Русский, (AC3, 2 ch, 384 Кбит/с)
скриншот  скриншот  скриншот  

Общее
Уникальный идентификатор : 199068838896918955624696354796193037988 (0x95C34387419D675BABFDDC3DC159BEA4)
Полное имя : F:\The.Escape.2018.D.WEB-DL.1O8Op_KOSHARA.mkv
Формат : Matroska
Версия формата : Version 2
Размер файла : 3,99 Гбайт
Продолжительность : 1 ч. 43 м.
Режим общего битрейта : Переменный
Общий поток : 5525 Кбит/сек
Дата кодирования : UTC 2018-06-07 01:31:33
Программа кодирования : mkvmerge v8.3.0 ('Over the Horizon') 64bit
Библиотека кодирования : libebml v1.3.1 + libmatroska v1.4.2

Видео
Идентификатор : 2
Формат : AVC
Формат/Информация : Advanced Video Codec
Профиль формата : High@L4.1
Параметр CABAC формата : Да
Параметр RefFrames формата : 4 кадра
Идентификатор кодека : V_MPEG4/ISO/AVC
Продолжительность : 1 ч. 43 м.
Вид битрейта : Переменный
Битрейт : 5139 Кбит/сек
Максимальный битрейт : 5900 Кбит/сек
Ширина : 1920 пикселей
Высота : 792 пикселя
Соотношение сторон : 2,40:1
Режим частоты кадров : Постоянный
Частота кадров : 23,976 (24000/1001) кадра/сек
Стандарт вещания : Component
Цветовое пространство : YUV
Субдискретизация насыщенности : 4:2:0
Битовая глубина : 8 бит
Тип развёртки : Прогрессивная
Бит/(Пиксели*Кадры) : 0.138
Размер потока : 3,63 Гбайт (91%)
Default : Да
Forced : Нет
Цветовой диапазон : Limited
Основные цвета : BT.709
Характеристики трансфера : BT.709
Коэффициенты матрицы : BT.709

Аудио
Идентификатор : 1
Формат : AC-3
Формат/Информация : Audio Coding 3
Расширение режима : CM (complete main)
Параметр Endianness формата : Big
Идентификатор кодека : A_AC3
Продолжительность : 1 ч. 43 м.
Вид битрейта : Постоянный
Битрейт : 384 Кбит/сек
Каналы : 2 канала
Расположение каналов : Front: L R
Частота : 48,0 КГц
Частота кадров : 31,250 кадров/сек (1536 spf)
Метод сжатия : С потерями
Размер потока : 284 Мбайт (7%)
Default : Да
Forced : Нет

pb.wtf



Скачать Побег через торрент http://img12.lostpic.net/2018/06/09/227622514d2fc3141180505d42670075.jpg Скачать фильм Побег через торрент бесплантно в хорошем качестве Описание: Фильм рассказывает о простой женщине, которой пришлось преодолеть много трудностей, но нашедшей в себе силы, чтобы познать себя и ... 8.4 10 5
Торрент: Зарегистрирован [2018-06-09 20:09] · скачан: 23 раз
Статус: T временная
Размер: 3.99 GB
Как cкачать? Как скачать Побег через торрент | qTorrent

% Раздел Тема Автор DL S | L
Фильмы 2019-2020 [DVDrip, WEB-DLRip, HDrip] (DUB, MVO) [ 1.42 GB ] План побега 3 / Escape Plan: The Extractors [2019 BDRip] - Twi7ter Скачать
88 | 3
T Фильмы 2019-2020 [DVDrip, WEB-DLRip, HDrip] (DUB, MVO) [ 1.64 GB ] Побег из сумасшедшего дома: История Нелли Блай / Escaping the Madhouse: The Nellie Bly Story [2019 WEB-DLRip-AVC] MVO [HDRezka Studio] - OllanDGroup Skandar2019 Скачать
12 | 0
T Фильмы (WEB-DL 720p, 1080p) [ 5.54 GB ] Побег из сумасшедшего дома: История Нелли Блай / Escaping the Madhouse: The Nellie Bly Story [2019 WEB-DL 1080p] MVO [HDRezka Studio] bober100 Скачать
4 | 0
T Фильмы (WEB-DL 720p, 1080p) [ 2.19 GB ] Побег из сумасшедшего дома: История Нелли Блай / Escaping the Madhouse: The Nellie Bly Story [2019 WEB-DL 720p] MVO [HDRezka Studio] bober100 Скачать
3 | 0
Фильмы 2019-2020 [DVDrip, WEB-DLRip, HDrip] (DUB, MVO) [ 1.42 GB ] План побега 3 / Escape Plan: The Extractors [2019 BDRip] [Расширенная версия] bober100 Скачать
16 | 0
Фильмы 2019-2020 [DVDrip, WEB-DLRip, HDrip] (DUB, MVO) [ 746 MB ] План побега 3 / Escape Plan: The Extractors [2019 BDRip] [Расширенная версия] bober100 Скачать
1 | 0
Фильмы (Blu-ray, BD-Remux, HDDVD) [ 24.67 GB ] План побега 3 / Escape Plan: The Extractors [2019 BD Remux 1080p] [Extended Cut] bober100 Скачать
1 | 0

28-11-2019 20:33  

Отключить всю рекламу на сайте

    Дорогой пользователь! Огромная просьба, поблагодарите релизера, оцените раздачу и оставьте свои комментарий, если Вы скачали Побег через торрент бесплатно! Внесите свою лепту в развитие PiratBit!
    Комментировать посты могут только пользователи прошедшие не сложную регистрацию
    Показать сообщения:    

    Побег через торрент
    Скачать бесплатно Побег
    Побег скачать торрент
    Побег смотреть онлайн
    Cкачать фильм Побег бесплатно
    Побег скачать торрент в хорошем качестве
    Побег смотреть онлайн бесплатно в хорошем качестве


    Вы не можете начинать темы
    Вы не можете отвечать на сообщения
    Вы не можете редактировать свои сообщения
    Вы не можете удалять свои сообщения
    Вы не можете голосовать в опросах
    Вы не можете прикреплять файлы к сообщениям
    Вы можете скачивать файлы