Доктор Стрэндж

Лицензия

Добыча

Дубляж

Дом дракона

1 сезон

Тор

Дубляж

В эфире

Дубляж

Там, где раки поют

MVO

Властелин колец

1 сезон

GLOBAL

pack

Рекомендуем

30

Пиратка

ВАЖНО

ВАЖНО

Ghostwire

Пиратка

jed

RePack

nioh2

RePack

RDR2

RePack

NEED FOR SPEED™ PAYBACK

RePack

скачать торрент

Кинопоиск HD

Острые козырьки 6 сезон

6 сезон

FAR CRY 6

RePack

скачать торрент

Лицензия

скачать торрент

MVO

1

1 сезон

скачать торрент

1 сезон

скачать торрент

Лицензия

  

Три билборда на границе Эббинга, Миссури / Three Billboards Outside Ebbing, Missouri (Мартин МакДона) [2017, драма, комедия, кримина, BD Remux 1080p] DVO [Кубик в кубе] +3xAVO+Дубляж [Лицензия]

Три билборда на границе Эббинга, Миссури через торрент pb.wtf

Размер: 36.73 GB | Добавлен: 4 года 5 мес. назад | Торрент скачан:62 раза
Смотреть онлайн | Скачать   

10-06-2018 05:55 Три билборда на границе Эббинга, Миссури Скачать торрент  

Три билборда на границе Эббинга, Миссури / Three Billboards Outside Ebbing, Missouri
Год выпуска: 2017
Страна: Великобритания США
Жанр: драма, комедия, криминал
Продолжительность: 01:55:20
Перевод:

#1: Дублированный | Лицензия
#2: Авторский | Михаил Яроцкий
#3: Авторский | Сербин
#4: Авторский | Есарев
#5: Профессиональный двухголосый | Кубик в кубе

Субтитры: Русские (forced, full), английские

Режиссер: Мартин МакДона

rating

В ролях:

Фрэнсис МакДорманд, Калеб Лэндри Джонс, Керри Кондон, Сэм Рокуэлл, Алехандро Барриос, Джейсон Редфорд, Даррел Бритт-Гибсон

Описание:

Спустя несколько месяцев после убийства дочери Милдред Хейс преступники так и не найдены. Отчаявшаяся женщина решается на смелый шаг, арендуя на въезде в город три биллборда с посланием к авторитетному главе полиции Уильяму Уиллоуби. Когда в ситуацию оказывается втянут ещё и заместитель шерифа, инфантильный маменькин сынок со склонностью к насилию, офицер Диксон, борьба между Милдред и властями города только усугубляется...

Качество: BD Remux 1080p
Формат: MKV

Видео: 28.0 Mбит/с, 1920x1080, 23.976 кадр/с
Аудио#1: Русский DTS-HD MA 5.1 2759 kbps - Дубляж |
Аудио#2: Русский AC3 5.1 448 kbps - Дубляж |
Аудио#3: Русский AC3 5.1 640 kbps - Профессиональный двухголосый (Кубик в кубе) |
Аудио#4: Русский DTS-HD MA 5.1 3654 kbps - Авторский (Сербин) |
Аудио#5: Русский DTS-HD MA 5.1 3658 kbps - Авторский (Есарев) |
Аудио#6: Русский DTS-HD MA 5.1 3659 kbps - Авторский (Яроцкий) |
Аудио#7: Английский DTS 5.1 3625 kbps - Оригинал
скриншот   скриншот   скриншот   скриншот   скриншот   скриншот  

Общее
Уникальный идентификатор : 180679380673086422374190368975532859734 (0x87ED953CAE414BEC9D9320A5A0BC2156)
Полное имя : D:\РЕМУКС!!!!!\Три билборда на границе Эббинга, Миссури.BDRemux.mkv
Формат : Matroska
Версия формата : Version 4 / Version 2
Размер файла : 36,7 Гбайт
Продолжительность : 1 ч. 55 м.
Режим общего битрейта : Переменный
Общий поток : 45,6 Мбит/сек
Название фильма : Три билборда на границе Эббинга, Миссури.BDRemux.thx:SPOMOPS
Дата кодирования : UTC 2018-06-10 04:18:18
Программа кодирования : mkvmerge v8.3.0 ('Over the Horizon') 64bit
Библиотека кодирования : libebml v1.3.1 + libmatroska v1.4.2

Видео
Идентификатор : 1
Формат : AVC
Формат/Информация : Advanced Video Codec
Профиль формата : [email protected]
Настройки формата : CABAC / 4 Ref Frames
Параметр CABAC формата : Да
Параметр RefFrames формата : 4 кадра
Идентификатор кодека : V_MPEG4/ISO/AVC
Продолжительность : 1 ч. 55 м.
Вид битрейта : Переменный
Битрейт : 27,1 Мбит/сек
Максимальный битрейт : 33,4 Мбит/сек
Ширина : 1920 пикселей
Высота : 1080 пикселей
Соотношение сторон : 16:9
Режим частоты кадров : Постоянный
Частота кадров : 23,976 (24000/1001) кадра/сек
Цветовое пространство : YUV
Субдискретизация насыщенности : 4:2:0
Битовая глубина : 8 бит
Тип развёртки : Прогрессивная
Бит/(Пиксели*Кадры) : 0.546
Размер потока : 21,9 Гбайт (60%)
Язык : English
Default : Да
Forced : Нет

Аудио #1
Идентификатор : 2
Формат : DTS
Формат/Информация : Digital Theater Systems
Профиль формата : MA / Core
Идентификатор кодека : A_DTS
Продолжительность : 1 ч. 55 м.
Вид битрейта : Переменный / Постоянный
Битрейт : 2759 Кбит/сек / 768 Кбит/сек
Каналы : 6 каналов
Расположение каналов : Front: L C R, Side: L R, LFE
Частота : 48,0 КГц
Частота кадров : 93,750 кадра/сек (512 SPF)
Битовая глубина : 24 бит
Метод сжатия : Без потерь / Lossy
Размер потока : 2,22 Гбайт (6%)
Заголовок : Русский DTS-HD MA - Дубляж
Язык : Russian
Default : Да
Forced : Нет

Аудио #2
Идентификатор : 3
Формат : AC-3
Формат/Информация : Audio Coding 3
Идентификатор кодека : A_AC3
Продолжительность : 1 ч. 55 м.
Вид битрейта : Постоянный
Битрейт : 448 Кбит/сек
Каналы : 6 каналов
Расположение каналов : Front: L C R, Side: L R, LFE
Частота : 48,0 КГц
Частота кадров : 31,250 кадров/сек (1536 SPF)
Битовая глубина : 16 бит
Метод сжатия : С потерями
Задержка видео : -27 мс.
Размер потока : 370 Мбайт (1%)
Заголовок : Русский ас3 - Дубляж
Язык : Russian
ServiceKind/String : Complete Main
Default : Нет
Forced : Нет

Аудио #3
Идентификатор : 4
Формат : AC-3
Формат/Информация : Audio Coding 3
Идентификатор кодека : A_AC3
Продолжительность : 1 ч. 55 м.
Вид битрейта : Постоянный
Битрейт : 640 Кбит/сек
Каналы : 6 каналов
Расположение каналов : Front: L C R, Side: L R, LFE
Частота : 48,0 КГц
Частота кадров : 31,250 кадров/сек (1536 SPF)
Битовая глубина : 16 бит
Метод сжатия : С потерями
Размер потока : 528 Мбайт (1%)
Заголовок : Русский ас3 - ПД (Кубик в кубе)
Язык : Russian
ServiceKind/String : Complete Main
Default : Нет
Forced : Нет

Аудио #4
Идентификатор : 5
Формат : DTS
Формат/Информация : Digital Theater Systems
Профиль формата : MA / Core
Идентификатор кодека : A_DTS
Продолжительность : 1 ч. 55 м.
Вид битрейта : Переменный / Постоянный
Битрейт : 3654 Кбит/сек / 1509 Кбит/сек
Каналы : 6 каналов
Расположение каналов : Front: L C R, Side: L R, LFE
Частота : 48,0 КГц
Частота кадров : 93,750 кадра/сек (512 SPF)
Битовая глубина : 24 бит
Метод сжатия : Без потерь / Lossy
Задержка видео : -27 мс.
Размер потока : 2,94 Гбайт (8%)
Заголовок : Русский DTS-HD MA - АП (Сербин)
Язык : Russian
Default : Нет
Forced : Нет

Аудио #5
Идентификатор : 6
Формат : DTS
Формат/Информация : Digital Theater Systems
Профиль формата : MA / Core
Идентификатор кодека : A_DTS
Продолжительность : 1 ч. 55 м.
Вид битрейта : Переменный / Постоянный
Битрейт : 3658 Кбит/сек / 1509 Кбит/сек
Каналы : 6 каналов
Расположение каналов : Front: L C R, Side: L R, LFE
Частота : 48,0 КГц
Частота кадров : 93,750 кадра/сек (512 SPF)
Битовая глубина : 24 бит
Метод сжатия : Без потерь / Lossy
Размер потока : 2,95 Гбайт (8%)
Заголовок : Русский DTS-HD MA - АП (Есарев)
Язык : Russian
Default : Нет
Forced : Нет

Аудио #6
Идентификатор : 7
Формат : DTS
Формат/Информация : Digital Theater Systems
Профиль формата : MA / Core
Идентификатор кодека : A_DTS
Продолжительность : 1 ч. 55 м.
Вид битрейта : Переменный / Постоянный
Битрейт : 3659 Кбит/сек / 1509 Кбит/сек
Каналы : 6 каналов
Расположение каналов : Front: L C R, Side: L R, LFE
Частота : 48,0 КГц
Частота кадров : 93,750 кадра/сек (512 SPF)
Битовая глубина : 24 бит
Метод сжатия : Без потерь / Lossy
Размер потока : 2,95 Гбайт (8%)
Заголовок : Русский DTS-HD MA - АП (Яроцкий)
Язык : Russian
Default : Нет
Forced : Нет

Аудио #7
Идентификатор : 8
Формат : DTS
Формат/Информация : Digital Theater Systems
Профиль формата : MA / Core
Идентификатор кодека : A_DTS
Продолжительность : 1 ч. 55 м.
Вид битрейта : Переменный / Постоянный
Битрейт : 3625 Кбит/сек / 1509 Кбит/сек
Каналы : 6 каналов
Расположение каналов : Front: L C R, Side: L R, LFE
Частота : 48,0 КГц
Частота кадров : 93,750 кадра/сек (512 SPF)
Битовая глубина : 24 бит
Метод сжатия : Без потерь / Lossy
Размер потока : 2,92 Гбайт (8%)
Заголовок : Английский DTS-HD MA - Оригинал
Язык : English
Default : Нет
Forced : Нет

Текст #1
Идентификатор : 9
Формат : UTF-8
Идентификатор кодека : S_TEXT/UTF8
Идентификатор кодека/Информация : UTF-8 Plain Text
Продолжительность : 50 м. 29 с.
Битрейт : 1 бит/сек
ElementCount : 8
Размер потока : 381 байт (0%)
Заголовок : Русские - Форс.
Язык : Russian
Default : Да
Forced : Нет

Текст #2
Идентификатор : 10
Формат : UTF-8
Идентификатор кодека : S_TEXT/UTF8
Идентификатор кодека/Информация : UTF-8 Plain Text
Продолжительность : 1 ч. 46 м.
Битрейт : 99 бит/сек
ElementCount : 1370
Размер потока : 77,8 Кбайт (0%)
Заголовок : Русские - FOCS
Язык : Russian
Default : Нет
Forced : Нет

Текст #3
Идентификатор : 11
Формат : UTF-8
Идентификатор кодека : S_TEXT/UTF8
Идентификатор кодека/Информация : UTF-8 Plain Text
Продолжительность : 1 ч. 49 м.
Битрейт : 57 бит/сек
ElementCount : 1557
Размер потока : 46,6 Кбайт (0%)
Заголовок : Английские
Язык : English
Default : Нет
Forced : Нет

Текст #4
Идентификатор : 12
Формат : UTF-8
Идентификатор кодека : S_TEXT/UTF8
Идентификатор кодека/Информация : UTF-8 Plain Text
Продолжительность : 1 ч. 49 м.
Битрейт : 60 бит/сек
ElementCount : 1659
Размер потока : 48,8 Кбайт (0%)
Заголовок : Английские - SDH
Язык : English
Default : Нет
Forced : Нет

Текст #5
Идентификатор : 13
Формат : UTF-8
Идентификатор кодека : S_TEXT/UTF8
Идентификатор кодека/Информация : UTF-8 Plain Text
Продолжительность : 1 ч. 49 м.
Битрейт : 78 бит/сек
ElementCount : 1659
Размер потока : 63,4 Кбайт (0%)
Заголовок : Английские - SDH Colored
Язык : English
Default : Нет
Forced : Нет

Меню
00:00:00.000 : en:Chapter 1
00:05:42.091 : en:Chapter 2
00:08:56.911 : en:Chapter 3
00:12:50.019 : en:Chapter 4
00:19:46.643 : en:Chapter 5
00:23:43.547 : en:Chapter 6
00:27:36.363 : en:Chapter 7
00:31:35.768 : en:Chapter 8
00:35:08.689 : en:Chapter 9
00:40:54.827 : en:Chapter 10
00:44:35.714 : en:Chapter 11
00:49:18.789 : en:Chapter 12
00:55:35.915 : en:Chapter 13
00:59:56.134 : en:Chapter 14
01:04:09.887 : en:Chapter 15
01:10:55.292 : en:Chapter 16
01:15:36.698 : en:Chapter 17
01:23:08.733 : en:Chapter 18
01:27:24.489 : en:Chapter 19
01:35:49.702 : en:Chapter 20
01:40:32.693 : en:Chapter 21
01:44:02.194 : en:Chapter 22
01:46:56.910 : en:Chapter 23
01:49:55.005 : en:Chapter 24




Скачать Три билборда на границе Эббинга, Миссури через торрент http://img12.lostpic.net/2018/02/19/d6072e0f9e3ba43873fa760aa5d522e7.jpg Скачать, смотреть онлайн Три билборда на границе Эббинга, Миссури бесплантно в хорошем качестве Описание: Спустя несколько месяцев после убийства дочери Милдред Хейс преступники так и не найдены. Отчаявшаяся женщина решается на смелый ... 10 10 3
Info! Золотая раздача, скачанное не засчитывается.
Торрент: Зарегистрирован [2018-06-10 05:55] · скачан: 62 раз
Статус: √ проверено
Размер: 36.73 GB
Как cкачать? Как скачать Три билборда на границе Эббинга, Миссури через торрент | UTorrent

% Раздел Тема Автор DL S | L
Фильмы 2017 [DVDrip, WEB-DLRip, HDrip] (DUB, MVO) [ 2.18 GB ] Три билборда на границе Эббинга, Миссури / Three Billboards Outside Ebbing, Missouri | Лицензия | BDRip Twi7ter Скачать
1 | 0
R.G. Resident & PiratVoice - Фильмы, Видео [ 933 MB ] Три Билборда на Границе Эббинга, Миссури / Three Billboards Outside Ebbing, Missouri | Ы + Original | BDRip Клерик Скачать
1 | 0
Ultra HD (UHD: 2K, 4K, 8K) [ 15.14 GB ] Три билборда на границе Эббинга, Миссури / Three Billboards Outside Ebbing, Missouri | DUB + AVO | 2160p sheker187 Скачать
1 | 0
Фильмы 2017 [DVDrip, WEB-DLRip, HDrip] (DUB, MVO) [ 2.67 GB ] Три билборда на границе Эббинга, Миссури / Three Billboards Outside Ebbing, Missouri | Лицензия | HDRip-AVC Enigma2010 Скачать
1 | 0
Ultra HD (UHD: 2K, 4K, 8K) [ 48.85 GB ] Три билборда на границе Эббинга, Миссури / Three Billboards Outside Ebbing, Missouri | | BD Remux 2160p bober100 Скачать
1 | 0
Фильмы [HD 720p, 1080p] (Хороший звук DUB, MVO) [ 15.56 GB ] Три билборда на границе Эббинга, Миссури / Three Billboards Outside Ebbing, Missouri | | 1080p killermax2013 Скачать
1 | 0
Фильмы 2017 [DVDrip, WEB-DLRip, HDrip] (DUB, MVO) [ 745 MB ] Три билборда на границе Эббинга, Миссури / Three Billboards Outside Ebbing, Missouri | Лицензия | BDRip-AVC sokol_ok Скачать
2 | 0

28-11-2019 20:33  


Отключить вcю реклaмy на сайте, в т.ч. и в плеере онлайн просмотра!

    Дорогой пользователь! Огромная просьба, поблагодарите релизера, оцените раздачу и оставьте свои комментарий, если Вы скачали Три билборда на границе Эббинга, Миссури через торрент бесплатно!!
    Комментировать посты могут только пользователи прошедшие не сложную регистрацию
    Показать сообщения:    


    Три билборда на границе Эббинга, Миссури через торрент
    Скачать бесплатно Три билборда на границе Эббинга, Миссури
    Три билборда на границе Эббинга, Миссури скачать торрент
    Три билборда на границе Эббинга, Миссури смотреть онлайн
    Cкачать фильм Три билборда на границе Эббинга, Миссури бесплатно
    Три билборда на границе Эббинга, Миссури скачать торрент в хорошем качестве
    Три билборда на границе Эббинга, Миссури смотреть онлайн бесплатно в хорошем качестве
    Вы не можете начинать темы
    Вы не можете отвечать на сообщения
    Вы не можете редактировать свои сообщения
    Вы не можете удалять свои сообщения
    Вы не можете голосовать в опросах
    Вы не можете прикреплять файлы к сообщениям
    Вы можете скачивать файлы
    Три билборда на границе Эббинга, Миссури / Three Billboards Outside Ebbing, Missouri [2017, драма, комедия, кримина, BD Remux 1080p] DVO [Кубик в кубе] +3xAVO+Дубляж [Лицензия] смотреть онлайн, скачать торрент picoco.icu