новый адрес
Ссылка на приватное зеркало всего за 1$. Внимание количество ограничено!!!

iTunes

1+1

iTunes

мы

iTunes

1

iTunes

Чернобыль

iTunes

Ральф против интернета

Лицензия

ПШазам

Лицензия

Оно 2

Лицензия

30
pack

Вам бонус

ВАЖНО

!!Акция!!

Alien_RageХит недели

RePack

Resident Evil 21

ИГРА 18+

pack

RePack

jed

!!Акция!!

Alien_Rage

RePack

fifa19

RePack

Assassins Creed: Odyssey

RePack

NEED FOR SPEED™ PAYBACK

3 сезон

9 сезон

Бесстыжие 9 сезон

Все сериалы

все сериалы на PB.wtf

RePack

FAR CRY 5
Ребята, катастрофически не хватает 1900р. для оплаты серверов за Октябрь (всвязи с блокировками трафик упал в 3 раза), 1-2р., выручайте.
  

Тихоокеанский рубеж 2 / Pacific Rim Uprising (Стивен С. ДеНайт) [2018, фантастика, боевик, приключения, BDRip-AVC] Dub [Лицензия], MVO [HDrezka Studio] - ExKinoRay pb.wtf

Тихоокеанский рубеж 2 через торрент pb.wtf

Раздают: 1 [ 0 KB/s ]
Размер: 3.21 GB | Добавлен: 1 год 4 мес. назад | Торрент скачан:490 раз
Скачать  

10-06-2018 12:00 Тихоокеанский рубеж 2 Скачать торрент  

Название: Тихоокеанский рубеж 2
Оригинальное название: Pacific Rim Uprising
Год выхода : 2018
Выпущено: Китай, США
Жанр: фантастика, боевик, приключения
Перевод: Дублированный | Лицензия
Профессиональный многоголосый [HDrezka Studio]
Продолжительность: 01:50:42
Субтитры: Русские (Форсированные, полные), английские
Режиссер: Стивен С. ДеНайт
В главных ролях: Джон Бойега, Скотт Иствуд, Кэйли Спэни, Берн Горман, Чарли Дэй, Цзин Тянь, Макс Чжан, Адриа Архона, Ринко Кикути, Каран Брэр

Описание: Много лет назад весь мир подвергся атаке огромных монстров, которые периодически стали приходить из океанских глубин и нападать на крупные города. Для своей защиты людям пришлось создать гигантски роботов. Егеря созданы таким образом, что управлять ими могут лишь два пилота одновременно, при этом между ними должна быть установлена нейронная связь. Чем лучше эта связь, тем больше шансов одолеть монстра. Со временем появления Кайдзю участились, и их не остановила даже огромная стена. Люди сошлись чудовищами в ожесточённой схватке и ценою тысяч жизней смогли не только одержать победу, но и разрушить портал. С тех пор прошло уже немало времени, егеря стали обыденным явлениям, а люди постепенно начали забывать о прошлых событиях. Несмотря на долгое отсутствие Кайдзю, появляются новые пилоты, которые готовятся к возможным будущим сражениям. Одним из смельчаков оказывается выросший сын маршала Пентекоста. Он великолепно проходит обучение и показывает просто невероятные результаты. В это же время открывается новый портал в другое измерение, и на этот раз человечество подвергается атаке ещё более злобных, больших и опасных Кайдзю. Их единственная цель – уничтожить всё на своём пути. Грядёт новое противостояние людей и гигантских чудовищ.

rating

Файл
Формат: MKV
Качество: BDRip-AVC
Видео: MPEG-4 AVC, 1024x426 (2.40:1), 23.976 fps, ~ 3062 kbps avg, 0.293 bit/pixel
Аудио 1: 48 kHz, AC3, 5.1, 448 Kbps | RUS |
Аудио 2: 48 kHz, AC3, 2.0, 192 Kbps | RUS |
Аудио 3: 48 kHz, AC3, 5.1, 448 Kbps | ENG |

Без рекламы!
General
Unique ID : 214284893045865444954361443724934490647 (0xA135C4EB40EAFFBDB139320E102BAA17)
Complete name : D:\Pacific.Rim.Uprising.2018.BDRip.AVC.ExKinoRay.mkv
Format : Matroska
Format version : Version 2
File size : 3.21 GiB
Duration : 1 h 50 min
Overall bit rate : 4 149 kb/s
Movie name : Pacific Rim Uprising 2018 from ExKinoRay
Encoded date : UTC 2018-07-19 11:48:25
Writing application : mkvmerge v5.6.0 ('Kenya Kane') built on May 27 2012 16:44:04
Writing library : libebml v1.2.3 + libmatroska v1.3.0

Video
ID : 1
Format : AVC
Format/Info : Advanced Video Codec
Format profile : High@L4.1
Format settings, CABAC : Yes
Format settings, ReFrames : 12 frames
Codec ID : V_MPEG4/ISO/AVC
Duration : 1 h 50 min
Bit rate : 3 062 kb/s
Width : 1 024 pixels
Height : 426 pixels
Display aspect ratio : 2.40:1
Frame rate mode : Constant
Frame rate : 23.976 (23976/1000) FPS
Color space : YUV
Chroma subsampling : 4:2:0
Bit depth : 8 bits
Scan type : Progressive
Bits/(Pixel*Frame) : 0.293
Stream size : 2.30 GiB (72%)
Title : Enigma
Writing library : x264 core 152 r2851 ba24899
Encoding settings : cabac=1 / ref=12 / deblock=1:-2:-2 / analyse=0x3:0x113 / me=umh / subme=11 / psy=1 / psy_rd=1.05:0.10 / mixed_ref=1 / me_range=32 / chroma_me=1 / trellis=2 / 8x8dct=1 / cqm=0 / deadzone=21,11 / fast_pskip=0 / chroma_qp_offset=-3 / threads=12 / lookahead_threads=3 / sliced_threads=0 / nr=0 / decimate=0 / interlaced=0 / bluray_compat=0 / constrained_intra=0 / bframes=10 / b_pyramid=2 / b_adapt=2 / b_bias=0 / direct=3 / weightb=1 / open_gop=0 / weightp=2 / keyint=240 / keyint_min=23 / scenecut=40 / intra_refresh=0 / rc_lookahead=40 / rc=2pass / mbtree=0 / bitrate=3062 / ratetol=1.0 / qcomp=0.60 / qpmin=0 / qpmax=51 / qpstep=4 / cplxblur=20.0 / qblur=0.5 / vbv_maxrate=50000 / vbv_bufsize=62500 / nal_hrd=none / filler=0 / ip_ratio=1.40 / pb_ratio=1.30 / aq=2:0.90
Language : English
Default : Yes
Forced : No
Color range : Limited
Color primaries : BT.709
Transfer characteristics : BT.709
Matrix coefficients : BT.709

Audio #1
ID : 2
Format : AC-3
Format/Info : Audio Coding 3
Mode extension : CM (complete main)
Format settings, Endianness : Big
Codec ID : A_AC3
Duration : 1 h 50 min
Bit rate mode : Constant
Bit rate : 448 kb/s
Channel(s) : 6 channels
Channel positions : Front: L C R, Side: L R, LFE
Sampling rate : 48.0 kHz
Frame rate : 31.250 FPS (1536 spf)
Compression mode : Lossy
Stream size : 355 MiB (11%)
Title : Dub (Blu-ray EUR)
Language : Russian
Default : Yes
Forced : No

Audio #2
ID : 3
Format : AC-3
Format/Info : Audio Coding 3
Mode extension : CM (complete main)
Format settings, Endianness : Big
Codec ID : A_AC3
Duration : 1 h 50 min
Bit rate mode : Constant
Bit rate : 192 kb/s
Channel(s) : 2 channels
Channel positions : Front: L R
Sampling rate : 48.0 kHz
Frame rate : 31.250 FPS (1536 spf)
Compression mode : Lossy
Stream size : 152 MiB (5%)
Title : HDRezka
Language : Russian
Default : No
Forced : No

Audio #3
ID : 4
Format : AC-3
Format/Info : Audio Coding 3
Mode extension : CM (complete main)
Format settings, Endianness : Big
Codec ID : A_AC3
Duration : 1 h 50 min
Bit rate mode : Constant
Bit rate : 448 kb/s
Channel(s) : 6 channels
Channel positions : Front: L C R, Side: L R, LFE
Sampling rate : 48.0 kHz
Frame rate : 31.250 FPS (1536 spf)
Compression mode : Lossy
Stream size : 355 MiB (11%)
Language : English
Default : No
Forced : No

Text #1
ID : 5
Format : UTF-8
Codec ID : S_TEXT/UTF8
Codec ID/Info : UTF-8 Plain Text
Title : Forced
Language : Russian
Default : Yes
Forced : Yes

Text #2
ID : 6
Format : UTF-8
Codec ID : S_TEXT/UTF8
Codec ID/Info : UTF-8 Plain Text
Title : full
Language : Russian
Default : No
Forced : No

Text #3
ID : 7
Format : UTF-8
Codec ID : S_TEXT/UTF8
Codec ID/Info : UTF-8 Plain Text
Title : full
Language : English
Default : No
Forced : No

Menu
00:00:00.000 : en:00:00:00.000
00:06:54.873 : en:00:06:54.873
00:13:05.368 : en:00:13:05.368
00:15:51.075 : en:00:15:51.075
00:20:36.360 : en:00:20:36.360
00:24:49.697 : en:00:24:49.697
00:31:08.241 : en:00:31:08.241
00:37:56.065 : en:00:37:56.065
00:43:37.949 : en:00:43:37.949
00:49:01.939 : en:00:49:01.939
00:53:40.926 : en:00:53:40.926
00:58:12.030 : en:00:58:12.030
01:04:45.006 : en:01:04:45.006
01:09:25.536 : en:01:09:25.536
01:14:36.722 : en:01:14:36.722
01:22:53.427 : en:01:22:53.427
01:29:02.546 : en:01:29:02.546
01:33:10.585 : en:01:33:10.585
01:38:07.381 : en:01:38:07.381
01:40:55.049 : en:01:40:55.049
Релиз от:

Автор релиза: pb.wtf



Скачать Тихоокеанский рубеж 2 через торрент http://i105.fastpic.ru/big/2018/0419/fd/43fdd54c34815a89858ae1a33ff323fd.png Скачать фильм Тихоокеанский рубеж 2 через торрент бесплантно в хорошем качестве Описание: Много лет назад весь мир подвергся атаке огромных монстров, которые периодически стали приходить из океанских глубин и нападать ... 9.9 10 21
Info! Золотая раздача, скачанное не засчитывается.
Торрент: Зарегистрирован [2018-07-19 12:09] · скачан: 490 раз
Статус: √ проверено
Размер: 3.21 GB
Как cкачать? Как скачать Тихоокеанский рубеж 2 через торрент | qTorrent

% Раздел Тема Автор DL S | L
Фильмы 2018 [DVDrip, WEB-DLRip, HDrip] (DUB, MVO) [ 2.38 GB ] Тихоокеанский рубеж 2 / Pacific Rim Uprising [2018 WEB-DLRip-AVC] Dub MVO [HDrezka Studio] - ExKinoRay Enigma2010 Скачать
8 | 0

28-11-2019 20:33  

Отключить всю рекламу на сайте

19-07-2018 12:09 Тихоокеанский рубеж 2 Скачать торрент  

Замена на лицензию.pb.wtf



19-07-2018 13:09 Тихоокеанский рубеж 2 Скачать торрент  

о5 этих губашлебов негров суютpb.wtf



19-07-2018 13:45 Тихоокеанский рубеж 2 Скачать торрент  

Зачем сняли?pb.wtf



26-07-2018 16:28 Тихоокеанский рубеж 2 Скачать торрент  

Вот это я понимаю полное дерьмо-продолжения,я даже смотреть не смогу,после 30 минуты выключилpb.wtf



    Дорогой пользователь! Огромная просьба, поблагодарите релизера, оцените раздачу и оставьте свои комментарий, если Вы скачали Тихоокеанский рубеж 2 через торрент бесплатно! Внесите свою лепту в развитие PiratBit!
    Комментировать посты могут только пользователи прошедшие не сложную регистрацию
    Показать сообщения:    

    Тихоокеанский рубеж 2 через торрент
    Скачать бесплатно Тихоокеанский рубеж 2
    Тихоокеанский рубеж 2 скачать торрент
    Тихоокеанский рубеж 2 смотреть онлайн
    Cкачать фильм Тихоокеанский рубеж 2 бесплатно
    Тихоокеанский рубеж 2 скачать торрент в хорошем качестве
    Тихоокеанский рубеж 2 смотреть онлайн бесплатно в хорошем качестве


    Вы не можете начинать темы
    Вы не можете отвечать на сообщения
    Вы не можете редактировать свои сообщения
    Вы не можете удалять свои сообщения
    Вы не можете голосовать в опросах
    Вы не можете прикреплять файлы к сообщениям
    Вы можете скачивать файлы