Ссылка на приватное зеркало нашего сайта всего за 1$. Внимание количество ограничено!!!

2 сезон

iTunes

1 сезон

1

2 сезон

2 сезон

iTunes

1 сезон

RePack

30

Ultimate

ВАЖНО

ИГРА 18+

pack

RePack

MK11
pack

Забери бонус

RePack

jed

!!Акция!!

Alien_Rage

RePack

fifa19

RePack

Assassins Creed: Odyssey

RePack

NEED FOR SPEED™ PAYBACK

4 сезон

9 сезон

Бесстыжие 9 сезон

Все сериалы

все сериалы на PB.wtf

RePack

FAR CRY 5
  

Форма воды / The Shape of Water (Гильермо дель Торо) [2017, ужасы, фэнтези, триллер, драма, мелодрама, приключения, BD Remux 1080p] AVO [Визгунов] +2xDUB (rus, ukr) [Krat11, Лицензия] pb.wtf

Форма воды через торрент pb.wtf

Размер: 35.07 GB | Добавлен: 2 года 5 мес. назад | Торрент скачан:19 раз
Скачать  

11-06-2018 08:35 Форма воды Скачать торрент  

Форма воды / The Shape of Water
Год выпуска: 2017
Страна: Канада, США
Жанр: ужасы, фэнтези, триллер, драма, мелодрама, приключения
Продолжительность: 02:03:19
Перевод:

#1. Дублированный | krat11
#2. Дублированный | Лицензия
#3. Авторский | Визгунов

Субтитры: Русские (forced, full), украинские (forced, full), английские

Режиссер: Гильермо дель Торо

rating

В ролях:


Салли Хокинс (Elisa Esposito), Майкл Шеннон (Richard Strickland), Ричард Дженкинс (Giles), Октавия Спенсер (Zelda Fuller), Майкл Стулбарг (Dr. Robert Hoffstetler), Даг Джонс (Amphibian Man), Дэвид Хьюлетт (Fleming), Ник Сирси (General Hoyt), Стюарт Арнотт (Bernard), Найджел Беннетт (Mihalkov), Лорен Ли Смит (Elaine Strickland), Мартин Роуч (Brewster Fuller)
Описание:

Действие разворачивается в 1963 году. Главная героиня - немая уборщица в научной лаборатории. В стенах секретного учреждения идёт работа по изучению отловленного человека-амфибии. Женщина влюбляется в мутанта и помогает ему бежать...

Качество: BD Remux 1080p
Формат: MKV

Видео: MPEG-4 AVC, 1920x1080, 27.4 Mbit/s, 23.976 fps
Аудио#1: 48 kHz, DTS-HD MA 5.1 3928 Kbps | Дублированный | RUS |
Аудио#2: 48 kHz, AC3, DTS, 5.1, 768 Kbps | Дублированный | RUS |
Аудио#3: 48 kHz, AC3, 5.1, 448 Kbps | Дублированный | RUS |
Аудио#4: 48 kHz, DTS-HD MA 5.1 3840 Kbps | Авторский | RUS |
Аудио#5: 48 kHz, AC3, 5.1, 448 Kbps | Дублированный | UKR |
Аудио#6: 48 kHz, DTS-HD MA, 5.1, 3840 Kbps | Оригинал | ENG |
скриншот   скриншот   скриншот   скриншот   скриншот  

Общее
Уникальный идентификатор : 245052492350704183124831816389162338989 (0xB85B64AF143D9D69B6B0C35B732E8AAD)
Полное имя : D:\РЕМУКС!!!!!\Форма воды.BDRemux.mkv
Формат : Matroska
Версия формата : Version 4 / Version 2
Размер файла : 35,1 Гбайт
Продолжительность : 2 ч. 3 м.
Режим общего битрейта : Переменный
Общий поток : 40,7 Мбит/сек
Название фильма : Форма воды.BDRemux.thx:SPOMOPS
Дата кодирования : UTC 2018-06-11 04:15:22
Программа кодирования : mkvmerge v8.3.0 ('Over the Horizon') 64bit
Библиотека кодирования : libebml v1.3.1 + libmatroska v1.4.2

Видео
Идентификатор : 1
Формат : AVC
Формат/Информация : Advanced Video Codec
Профиль формата : High@L4.1
Настройки формата : CABAC / 4 Ref Frames
Параметр CABAC формата : Да
Параметр RefFrames формата : 4 кадра
Идентификатор кодека : V_MPEG4/ISO/AVC
Продолжительность : 2 ч. 3 м.
Вид битрейта : Переменный
Битрейт : 27,4 Мбит/сек
Максимальный битрейт : 34,2 Мбит/сек
Ширина : 1920 пикселей
Высота : 1080 пикселей
Соотношение сторон : 16:9
Режим частоты кадров : Постоянный
Частота кадров : 23,976 (24000/1001) кадра/сек
Цветовое пространство : YUV
Субдискретизация насыщенности : 4:2:0
Битовая глубина : 8 бит
Тип развёртки : Прогрессивная
Бит/(Пиксели*Кадры) : 0.551
Размер потока : 23,6 Гбайт (67%)
Язык : English
Default : Да
Forced : Нет

Аудио #1
Идентификатор : 2
Формат : DTS
Формат/Информация : Digital Theater Systems
Профиль формата : MA / Core
Идентификатор кодека : A_DTS
Продолжительность : 2 ч. 3 м.
Вид битрейта : Переменный / Постоянный
Битрейт : 3928 Кбит/сек / 1509 Кбит/сек
Каналы : 6 каналов
Расположение каналов : Front: L C R, Side: L R, LFE
Частота : 48,0 КГц
Частота кадров : 93,750 кадра/сек (512 SPF)
Битовая глубина : 24 бит
Метод сжатия : Без потерь / Lossy
Размер потока : 3,38 Гбайт (10%)
Заголовок : Русский DTS-HD MA - Дубляж
Язык : Russian
Default : Да
Forced : Нет

Аудио #2
Идентификатор : 3
Формат : DTS
Формат/Информация : Digital Theater Systems
Идентификатор кодека : A_DTS
Продолжительность : 2 ч. 3 м.
Вид битрейта : Постоянный
Битрейт : 768 Кбит/сек
Каналы : 6 каналов
Расположение каналов : Front: L C R, Side: L R, LFE
Частота : 48,0 КГц
Частота кадров : 93,750 кадра/сек (512 SPF)
Битовая глубина : 24 бит
Метод сжатия : С потерями
Размер потока : 677 Мбайт (2%)
Заголовок : Русский DTS - Дубляж
Язык : Russian
Default : Нет
Forced : Нет

Аудио #3
Идентификатор : 4
Формат : AC-3
Формат/Информация : Audio Coding 3
Идентификатор кодека : A_AC3
Продолжительность : 2 ч. 3 м.
Вид битрейта : Постоянный
Битрейт : 448 Кбит/сек
Каналы : 6 каналов
Расположение каналов : Front: L C R, Side: L R, LFE
Частота : 48,0 КГц
Частота кадров : 31,250 кадров/сек (1536 SPF)
Битовая глубина : 16 бит
Метод сжатия : С потерями
Размер потока : 395 Мбайт (1%)
Заголовок : Русский АСЗ - Дубляж
Язык : Russian
ServiceKind/String : Complete Main
Default : Нет
Forced : Нет

Аудио #4
Идентификатор : 5
Формат : DTS
Формат/Информация : Digital Theater Systems
Профиль формата : MA / Core
Идентификатор кодека : A_DTS
Продолжительность : 2 ч. 3 м.
Вид битрейта : Переменный / Постоянный
Битрейт : 3840 Кбит/сек / 1509 Кбит/сек
Каналы : 6 каналов
Расположение каналов : Front: L C R, Side: L R, LFE
Частота : 48,0 КГц
Частота кадров : 93,750 кадра/сек (512 SPF)
Битовая глубина : 24 бит
Метод сжатия : Без потерь / Lossy
Размер потока : 3,34 Гбайт (10%)
Заголовок : Русский DTS-HD MA - АП (Визгунов)
Язык : Russian
Default : Нет
Forced : Нет

Аудио #5
Идентификатор : 6
Формат : AC-3
Формат/Информация : Audio Coding 3
Идентификатор кодека : A_AC3
Продолжительность : 2 ч. 3 м.
Вид битрейта : Постоянный
Битрейт : 448 Кбит/сек
Каналы : 6 каналов
Расположение каналов : Front: L C R, Side: L R, LFE
Частота : 48,0 КГц
Частота кадров : 31,250 кадров/сек (1536 SPF)
Битовая глубина : 16 бит
Метод сжатия : С потерями
Размер потока : 395 Мбайт (1%)
Заголовок : Украинский АСЗ - Дубляж
Язык : Ukrainian
ServiceKind/String : Complete Main
Default : Нет
Forced : Нет

Аудио #6
Идентификатор : 7
Формат : DTS
Формат/Информация : Digital Theater Systems
Профиль формата : MA / Core
Идентификатор кодека : A_DTS
Продолжительность : 2 ч. 3 м.
Вид битрейта : Переменный / Постоянный
Битрейт : 3840 Кбит/сек / 1509 Кбит/сек
Каналы : 6 каналов
Расположение каналов : Front: L C R, Side: L R, LFE
Частота : 48,0 КГц
Частота кадров : 93,750 кадра/сек (512 SPF)
Битовая глубина : 24 бит
Метод сжатия : Без потерь / Lossy
Размер потока : 3,30 Гбайт (9%)
Заголовок : Английский DTS-HD MA - Оригинал
Язык : English
Default : Нет
Forced : Нет

Текст #1
Идентификатор : 8
Формат : UTF-8
Идентификатор кодека : S_TEXT/UTF8
Идентификатор кодека/Информация : UTF-8 Plain Text
Продолжительность : 1 ч. 58 м.
Битрейт : 1 бит/сек
ElementCount : 61
Размер потока : 1,38 Кбайт (0%)
Заголовок : Русские - forced
Язык : Russian
Default : Да
Forced : Да

Текст #2
Идентификатор : 9
Формат : UTF-8
Идентификатор кодека : S_TEXT/UTF8
Идентификатор кодека/Информация : UTF-8 Plain Text
Продолжительность : 2 ч. 1 м.
Битрейт : 69 бит/сек
ElementCount : 1264
Размер потока : 61,8 Кбайт (0%)
Заголовок : Русские
Язык : Russian
Default : Нет
Forced : Нет

Текст #3
Идентификатор : 10
Формат : UTF-8
Идентификатор кодека : S_TEXT/UTF8
Идентификатор кодека/Информация : UTF-8 Plain Text
Продолжительность : 1 ч. 47 м.
Битрейт : 5 бит/сек
ElementCount : 167
Размер потока : 4,49 Кбайт (0%)
Заголовок : Украинские - forced
Язык : Ukrainian
Default : Нет
Forced : Нет

Текст #4
Идентификатор : 11
Формат : UTF-8
Идентификатор кодека : S_TEXT/UTF8
Идентификатор кодека/Информация : UTF-8 Plain Text
Продолжительность : 2 ч. 1 м.
Битрейт : 71 бит/сек
ElementCount : 1398
Размер потока : 64,1 Кбайт (0%)
Заголовок : Украинские
Язык : Ukrainian
Default : Нет
Forced : Нет

Текст #5
Идентификатор : 12
Формат : UTF-8
Идентификатор кодека : S_TEXT/UTF8
Идентификатор кодека/Информация : UTF-8 Plain Text
Продолжительность : 1 ч. 47 м.
Битрейт : 3 бит/сек
ElementCount : 169
Размер потока : 2,51 Кбайт (0%)
Заголовок : Английские - Forced
Язык : English
Default : Нет
Forced : Нет

Текст #6
Идентификатор : 13
Формат : UTF-8
Идентификатор кодека : S_TEXT/UTF8
Идентификатор кодека/Информация : UTF-8 Plain Text
Продолжительность : 1 ч. 56 м.
Битрейт : 43 бит/сек
ElementCount : 1307
Размер потока : 36,8 Кбайт (0%)
Заголовок : Английские
Язык : English
Default : Нет
Forced : Нет

Текст #7
Идентификатор : 14
Формат : UTF-8
Идентификатор кодека : S_TEXT/UTF8
Идентификатор кодека/Информация : UTF-8 Plain Text
Продолжительность : 2 ч. 2 м.
Битрейт : 56 бит/сек
ElementCount : 1925
Размер потока : 51,3 Кбайт (0%)
Заголовок : Английские - SDH
Язык : English
Default : Нет
Forced : Нет

Меню
00:00:00.000 : en:00:00:00.000
00:06:24.467 : en:00:06:24.467
00:12:54.774 : en:00:12:54.774
00:18:32.987 : en:00:18:32.987
00:23:45.591 : en:00:23:45.591
00:29:39.653 : en:00:29:39.653
00:35:29.836 : en:00:35:29.836
00:39:30.535 : en:00:39:30.535
00:42:42.435 : en:00:42:42.435
00:48:34.036 : en:00:48:34.036
00:52:26.935 : en:00:52:26.935
00:57:30.197 : en:00:57:30.197
01:01:52.542 : en:01:01:52.542
01:07:35.551 : en:01:07:35.551
01:12:13.496 : en:01:12:13.496
01:17:50.791 : en:01:17:50.791
01:21:17.122 : en:01:21:17.122
01:26:05.911 : en:01:26:05.911
01:32:48.480 : en:01:32:48.480
01:37:18.750 : en:01:37:18.750
01:43:24.115 : en:01:43:24.115
01:46:06.610 : en:01:46:06.610
01:50:31.667 : en:01:50:31.667
01:58:34.858 : en:01:58:34.858

pb.wtf



Скачать Форма воды через торрент http://img12.lostpic.net/2018/03/06/928cd24c5fb66517f424335cc022bc2c.jpg Скачать фильм Форма воды через торрент бесплантно в хорошем качестве Описание: Действие разворачивается в 1963 году. Главная героиня - немая уборщица в научной лаборатории. В стенах секретного учреждения идёт ... 10 10 2
Info! Золотая раздача, скачанное не засчитывается.
Торрент: Зарегистрирован [2018-06-11 08:35] · скачан: 19 раз
Статус: √ проверено
Размер: 35.07 GB
Как cкачать? Как скачать Форма воды через торрент | qTorrent

% Раздел Тема Автор DL S | L
Ultra HD (UHD: 2K, 4K, 8K) — видео сверхвысокой чёткости [ 57.34 GB ] Форма воды / The Shape of Water [2017 UHD Blu-ray 2160p] DUB [] bober100 Скачать
1 | 0
Ultra HD (UHD: 2K, 4K, 8K) — видео сверхвысокой чёткости [ 55.35 GB ] Форма воды / The Shape of Water [2017 UHD BDRemux 2160p] DUB [] + AVO [С. Визгунов] sheker187 Скачать
1 | 0
Фильмы [HD 720p, 1080p] (Хороший звук DUB, MVO) [ 13.33 GB ] Форма воды / The Shape of Water [2017 BDRip 1080p] DUB [] bober100 Скачать
2 | 0
Фильмы 2017 [DVDrip, WEB-DLRip, HDrip] (DUB, MVO) [ 2.78 GB ] Форма воды / The Shape of Water [2017 BDRip-AVC] [] - ExKinoRay Enigma2010 Скачать
1 | 1
Ultra HD (UHD: 2K, 4K, 8K) — видео сверхвысокой чёткости [ 17.96 GB ] Форма воды / The Shape of Water [2017 UHD BDRip 2160p] DUB [] bober100 Скачать
1 | 0
Фильмы 2017 [DVDrip, WEB-DLRip, HDrip] (DUB, MVO) [ 2.19 GB ] Форма воды / The Shape of Water [2017 BDRip] - [] Twi7ter Скачать
3 | 0
Ultra HD (UHD: 2K, 4K, 8K) — видео сверхвысокой чёткости [ 51.56 GB ] Форма воды / The Shape of Water [2017 UHD BDRemux 2160p] DUB [rus ukr] sheker187 Скачать
1 | 0

28-11-2019 20:33  

Отключить всю рекламу на сайте

11-06-2018 09:01 Форма воды Скачать торрент  

ПОЛНЫЙ БРЕД!!!!!pb.wtf



    Дорогой пользователь! Огромная просьба, поблагодарите релизера, оцените раздачу и оставьте свои комментарий, если Вы скачали Форма воды через торрент бесплатно! Внесите свою лепту в развитие PiratBit!
    Комментировать посты могут только пользователи прошедшие не сложную регистрацию
    Показать сообщения:    

    Форма воды через торрент
    Скачать бесплатно Форма воды
    Форма воды скачать торрент
    Форма воды смотреть онлайн
    Cкачать фильм Форма воды бесплатно
    Форма воды скачать торрент в хорошем качестве
    Форма воды смотреть онлайн бесплатно в хорошем качестве


    Вы не можете начинать темы
    Вы не можете отвечать на сообщения
    Вы не можете редактировать свои сообщения
    Вы не можете удалять свои сообщения
    Вы не можете голосовать в опросах
    Вы не можете прикреплять файлы к сообщениям
    Вы можете скачивать файлы