Ссылка на приватное зеркало нашего сайта всего за 1$. Внимание количество ограничено!!!

2 сезон

iTunes

1 сезон

1

2 сезон

2 сезон

iTunes

1 сезон

RePack

30

Ultimate

ВАЖНО

ИГРА 18+

pack

RePack

MK11
pack

Забери бонус

RePack

jed

!!Акция!!

Alien_Rage

RePack

fifa19

RePack

Assassins Creed: Odyssey

RePack

NEED FOR SPEED™ PAYBACK

4 сезон

9 сезон

Бесстыжие 9 сезон

Все сериалы

все сериалы на PB.wtf

RePack

FAR CRY 5
  

Крепкий орешек: Хороший день, чтобы умереть / A Good Day to Die Hard (Джон Мур) [2013 г., боевик, триллер, BDRip 1080p, HEVC (10bit), Дубляж] [Extended Cut] pb.wtf

Крепкий орешек: Хороший день, чтобы умереть через торрент pb.wtf

Размер: 4.54 GB | Добавлен: 2 года 5 мес. назад | Торрент скачан:83 раза
Скачать  

11-06-2018 08:36 Крепкий орешек: Хороший день, чтобы умереть Скачать торрент  

Крепкий орешек: Хороший день чтобы умереть / A Good Day to Die Hard
Год выпуска: 2013
Страна: США
Жанр: боевик, триллер
Продолжительность: 01:41:11
Перевод: Дубляж
Субтитры: Отсутствуют

Режиссер: Джон Мур

rating

В ролях: Брюс Уиллис, Джай Кортни, Себастьян Кох, Юлия Снигирь, Радивойе Буквич, Сергей Колесников, Мэри Элизабет Уинстэд, Коул Хаузер, Амори Ноласко

Описание: Джон МакКлейн прибывает в Москву, чтобы вызволить из тюрьмы своего непредсказуемого сына, но холодная голова и железные мускулы вязнут в паутине российской действительности. Дело, в которое влип МакКлейн-младший, оказывается настолько «опасной трясиной», что отцу и сыну, чтобы выжить и в очередной раз спасти мир, приходится объединить свои усилия, забыв прежние, казалось бы, непреодолимые разногласия.
Доп. информация: -
H.265/HEVC (High Efficiency Video Coding) - это новый стандарт кодирования видео.
- Стандарт H.265/HEVC является логическим продолжением стандарта
H.264/AVC (Advanced Video Coding), и характеризуется более эффективными
алгоритмами сжатия, а также поддержкой высокого разрешения вплоть до 8K UHD
(8192x4320). Первая версия стандарта H.265 была опубликована в начале 2013 года.
- Рипы в фомате HEVC поддерживается не всеми аппаратными проигрывателями.
- Для корректного воспроизведения может потребоваться обновление ПО.
- Владельцам несовместимого железа просьба не беспокоить,
есть альтернативные релизы.
Качество: BDRip 1080p
Формат: MKV
Видео кодек: H.265
Аудио кодек: AC3
Видео: 1920x1040, ~5779 kbps
Аудио: AC3, 6 ch, 640 kbps
Релиз от: HANNIBAL
Общее
Уникальный идентификатор : 191238546490860197131845121311511788998 (0x8FDF344E5DEC6623A84A51435211BDC6)
Полное имя : J:\ФИЛЬМЫ\A Good Day to Die Hard (2013) [Extended Cut] BDRip 1080p [HEVC] 10bit.mkv
Формат : Matroska
Версия формата : Version 4 / Version 2
Размер файла : 4,54 Гбайт
Продолжительность : 1 ч. 41 м.
Общий поток : 6419 Кбит/сек
Название фильма : A_GOOD_DAY_TO_DIE_HARD.Title801
Дата кодирования : UTC 2017-12-03 10:17:23
Программа кодирования : mkvmerge v9.5.0 ('Quiet Fire') 64bit
Библиотека кодирования : libebml v1.3.4 + libmatroska v1.4.5
Обложка : Yes
Attachments : cover.jpg

Видео
Идентификатор : 1
Формат : HEVC
Формат/Информация : High Efficiency Video Coding
Профиль формата : Main 10@L4@Main
Идентификатор кодека : V_MPEGH/ISO/HEVC
Продолжительность : 1 ч. 41 м.
Битрейт : 5779 Кбит/сек
Ширина : 1920 пикселей
Высота : 1040 пикселей
Соотношение сторон : 1,85:1
Режим частоты кадров : Постоянный
Частота кадров : 23,976 (24000/1001) кадра/сек
Цветовое пространство : YUV
Субдискретизация насыщенности : 4:2:0
Битовая глубина : 10 бит
Бит/(Пиксели*Кадры) : 0.121
Размер потока : 4,08 Гбайт (90%)
Default : Да
Forced : Нет
Цветовой диапазон : Limited
Основные цвета : BT.709
Характеристики трансфера : BT.709
Коэффициенты матрицы : BT.709

Аудио
Идентификатор : 2
Формат : AC-3
Формат/Информация : Audio Coding 3
Идентификатор кодека : A_AC3
Продолжительность : 1 ч. 41 м.
Вид битрейта : Постоянный
Битрейт : 640 Кбит/сек
Каналы : 6 каналов
Расположение каналов : Front: L C R, Side: L R, LFE
Частота : 48,0 КГц
Частота кадров : 31,250 кадров/сек (1536 SPF)
Битовая глубина : 16 бит
Метод сжатия : С потерями
Размер потока : 463 Мбайт (10%)
Язык : Russian
ServiceKind/String : Complete Main
Default : Да
Forced : Нет

Меню
00:00:00.000 : en:(01)00:00:00:000
00:02:45.999 : en:(02)00:02:45:999
00:05:02.135 : en:(03)00:05:02:135
00:09:36.242 : en:(04)00:09:36:242
00:12:13.899 : en:(05)00:12:13:899
00:15:25.549 : en:(06)00:15:25:549
00:18:02.998 : en:(07)00:18:02:998
00:22:31.349 : en:(08)00:22:31:349
00:28:31.376 : en:(09)00:28:31:376
00:32:28.863 : en:(10)00:32:28:863
00:36:05.913 : en:(11)00:36:05:913
00:39:53.641 : en:(12)00:39:53:641
00:42:20.621 : en:(13)00:42:20:621
00:46:04.720 : en:(14)00:46:04:720
00:50:30.986 : en:(15)00:50:30:986
00:53:21.656 : en:(16)00:53:21:656
00:57:05.546 : en:(17)00:57:05:546
01:01:46.619 : en:(18)01:01:46:619
01:05:03.649 : en:(19)01:05:03:649
01:10:24.052 : en:(20)01:10:24:052
01:14:04.981 : en:(21)01:14:04:981
01:17:50.415 : en:(22)01:17:50:415
01:20:18.021 : en:(23)01:20:18:021
01:24:05.832 : en:(24)01:24:05:832
01:26:17.922 : en:(25)01:26:17:922
01:28:05.488 : en:(26)01:28:05:488
01:32:37.802 : en:(27)01:32:37:802
01:35:24.927 : en:(28)01:35:24:927
01:41:10.939 : en:(29)01:41:10:939

pb.wtf



Скачать Крепкий орешек: Хороший день, чтобы умереть через торрент https://d.radikal.ru/d20/1806/d8/1eba6ec0f110.jpg Скачать фильм Крепкий орешек: Хороший день, чтобы умереть через торрент бесплантно в хорошем качестве Описание: Джон МакКлейн прибывает в Москву, чтобы вызволить из тюрьмы своего непредсказуемого сына, но холодная голова и железные мускулы ... 10 10 1
Торрент: Зарегистрирован [2018-06-11 08:36] · скачан: 83 раз
Статус: √ проверено
Размер: 4.54 GB
Как cкачать? Как скачать Крепкий орешек: Хороший день, чтобы умереть через торрент | qTorrent

% Раздел Тема Автор DL S | L
Фильмы 2013 [DVDrip, WEB-DLRip, HDrip] [ 1.37 GB ] Крепкий орешек: Хороший день чтобы умереть / A Good Day to Die Hard [2013 HDRip лицензия] [EXTENDED] Lyfe Скачать
1 | 0
Фильмы [HD 720p, 1080p] (Хороший звук DUB, MVO) [ 5.79 GB ] Крепкий орешек: Хороший день чтобы умереть / A Good Day to Die Hard [2013 слова BDRip 720p + Оригинал] Ke$h@ Скачать
1 | 0
Фильмы [HD 720p, 1080p] (Хороший звук DUB, MVO) [ 11.83 GB ] Крепкий орешек: Хороший день чтобы умереть / A Good Day to Die Hard [2013 слова BDRip 1080p + Оригинал] Ke$h@ Скачать
1 | 0
Фильмы 2013 [DVDrip, WEB-DLRip, HDrip] [ 2.18 GB ] Крепкий орешек: Хороший день чтобы умереть / A Good Day to Die Hard [2013 BDRip-AVC лицензия] МАКС1 Скачать
1 | 0
Фильмы [HD 720p, 1080p] (Хороший звук DUB, MVO) [ 11.21 GB ] Крепкий орешек: Хороший день чтобы умереть / A Good Day to Die Hard [2013 слова BDRip 1080p + Оригинал] Ворон Скачать
1 | 0
Фильмы 2013 [DVDrip, WEB-DLRip, HDrip] [ 1.46 GB ] Крепкий орешек: Хороший день чтобы умереть / A Good Day to Die Hard [2013 HDRip лицензия] [EXTENDED] Ворон Скачать
1 | 0

28-11-2019 20:33  

Отключить всю рекламу на сайте

    Дорогой пользователь! Огромная просьба, поблагодарите релизера, оцените раздачу и оставьте свои комментарий, если Вы скачали Крепкий орешек: Хороший день, чтобы умереть через торрент бесплатно! Внесите свою лепту в развитие PiratBit!
    Комментировать посты могут только пользователи прошедшие не сложную регистрацию
    Показать сообщения:    

    Крепкий орешек: Хороший день, чтобы умереть через торрент
    Скачать бесплатно Крепкий орешек: Хороший день, чтобы умереть
    Крепкий орешек: Хороший день, чтобы умереть скачать торрент
    Крепкий орешек: Хороший день, чтобы умереть смотреть онлайн
    Cкачать фильм Крепкий орешек: Хороший день, чтобы умереть бесплатно
    Крепкий орешек: Хороший день, чтобы умереть скачать торрент в хорошем качестве
    Крепкий орешек: Хороший день, чтобы умереть смотреть онлайн бесплатно в хорошем качестве


    Вы не можете начинать темы
    Вы не можете отвечать на сообщения
    Вы не можете редактировать свои сообщения
    Вы не можете удалять свои сообщения
    Вы не можете голосовать в опросах
    Вы не можете прикреплять файлы к сообщениям
    Вы можете скачивать файлы