>

7.4

iTunes

7.4

2 сезон

9.4

1 сезон

1

7.4

2 сезон

7.2

iTunes

6.0

MVO

13

6.1

iTunes

8.3

Пиратка

30

ULTIMATE

pack

9.9

Лицензия

ВАЖНО

ИГРА 18+

pack

7.3

RePack

MK11

7.7

RePack

jed

7.8

RePack

fifa19

8.5

RePack

RDR2

RePack

NEED FOR SPEED™ PAYBACK

1 сезон

9 сезон

Бесстыжие 9 сезон

Все сериалы

все сериалы на PB.wtf

RePack

FAR CRY 5

Anonymous, доброй ночи, мы катастрофически не успеваем собрать деньги на оплату серверов, помогите нам пожалуйста 5,10,15р., для нас важна любая помощь . В качестве благодарности мы отключим Вам всю рекламу на сайте (укажите свой ник в строку Ваше имя)!

×
  
Magnet ссылка

Дьявольский мед / Il miele del diavolo (Лучио Фульчи) [1986 г., Триллер, BDRip, Авторский (одноголосый закадровый) [Владимир Штейн]] pb.wtf

Дьявольский мед через торрент pb.wtf

Размер: 699 MB | Добавлен: 3 года 7 мес. назад | Торрент скачан:18 раз
Смотреть онлайн Дьявольский мед | Скачать    Ребята, помогите собрать деньги на оплату серверов!!!

12-06-2018 04:15 Дьявольский мед Скачать торрент  

Дьявольский мед / Il miele del diavolo
Год выпуска: 1986
Страна: Испания, Италия
Жанр: Триллер
Продолжительность: 01:22:47
Перевод: Авторский (одноголосый закадровый) [Владимир Штейн]
Субтитры: Нет

Режиссер: Лучио Фульчи

rating

В ролях: Бретт Хэлси, Коринн Клери, Бланка Марсильяч, Стефано Мадиа, Паула Молина, Бернард Серай, Кэролин Де Фонсека, Лучио Фульчи, Эулалия Рамон

Описание: По оплошности доктора Симпсона на операционном столе умирает молодой саксофонист Джонни, получивший тяжёлые травмы после падения с мотоцикла. Его девушка Джессика похищает врача, которого считает виновным в смерти Джонни. В пляжном домике она сажает его на цепь и начинает дьявольские пытки.

Качество: BDRip
Формат: AVI
Видео кодек: XviD
Аудио кодек: AC3
Видео: 720x384 (1.88:1), 23.976 fps, XviD build 50 ~978 kbps avg, 0.15 bit/pixel
Аудио#1: 48 kHz, AC3 Dolby Digital, 2/0 (L,R) ch, ~192 kbps
скриншот   скриншот   скриншот   скриншот   скриншот   скриншот  

Общее
Полное имя : D:\The.Devil's.Honey.1986.BDRip.700.avi
Формат : AVI
Формат/Информация : Audio Video Interleave
Размер файла : 699 Мбайт
Продолжительность : 1 ч. 22 м.
Общий поток : 1180 Кбит/сек
Программа кодирования : VirtualDubMod 1.5.10.3 | www.virtualdub-fr.org || (build 2550/release)
Библиотека кодирования : VirtualDubMod build 2550/release

Видео
Идентификатор : 0
Формат : MPEG-4 Visual
Профиль формата : Advanced Simple@L5
Параметр BVOP формата : 1
Параметр QPel формата : Нет
Параметр GMC формата : Без точки перехода
Параметр матрицы формата : Default (H.263)
Идентификатор кодека : DX50
Идентификатор кодека/Подсказка : DivX 5
Продолжительность : 1 ч. 22 м.
Битрейт : 978 Кбит/сек
Ширина : 720 пикселей
Высота : 384 пикселя
Соотношение сторон : 1,85:1
Частота кадров : 23,976 кадра/сек
Цветовое пространство : YUV
Субдискретизация насыщенности : 4:2:0
Битовая глубина : 8 бит
Тип развёртки : Прогрессивная
Метод сжатия : С потерями
Бит/(Пиксели*Кадры) : 0.148
Размер потока : 579 Мбайт (83%)
Библиотека кодирования : XviD 1.2.1 (UTC 2008-12-04)

Аудио
Идентификатор : 1
Формат : AC-3
Формат/Информация : Audio Coding 3
Расширение режима : CM (complete main)
Параметр Endianness формата : Big
Идентификатор кодека : 2000
Продолжительность : 1 ч. 22 м.
Вид битрейта : Постоянный
Битрейт : 192 Кбит/сек
Каналы : 2 канала
Расположение каналов : Front: L R
Частота : 48,0 КГц
Битовая глубина : 16 бит
Метод сжатия : С потерями
Размер потока : 114 Мбайт (16%)
Выравнивание : Разделение по промежуткам
Продолжительность промежутка : 42 мс. (1,00 видеокадр)
Время предзагрузки промежутка : 500 мс.

pb.wtf



Скачать Дьявольский мед через торрент http://i104.fastpic.ru/big/2018/0612/2c/7b57373de528a4b079605ca243e1b72c.jpg Скачать, смотреть онлайн Дьявольский мед бесплантно в хорошем качестве Описание: По оплошности доктора Симпсона на операционном столе умирает молодой саксофонист Джонни, получивший тяжёлые травмы после падения ... 10 10 3
Торрент: Зарегистрирован [2018-06-12 04:15] · скачан: 18 раз
Статус: √ проверено
Размер: 699 MB
Как cкачать? Как скачать Дьявольский мед через торрент | UTorrent

% Раздел Тема Автор DL S | L
Фильмы с авторской озвучкой [ 1.45 GB ] Дьявольский мед / Мед дьявола / The Devil's Honey / Il miele del diavolo [1986 BDRip] [AVO] killermax2013 Скачать
1 | 0
Фильмы с авторской озвучкой [ 7.56 GB ] Дьявольский мед / Il miele del diavolo [1986 BDRip 1080p] AVO [Владимир Штейн] -Lexx- Скачать
1 | 0


Последний раз редактировалось: Smokke 01 (2018-06-12 12:10), всего редактировалось 1 раз

28-11-2019 20:33  

Отключить всю рекламу на сайте

12-06-2018 04:25 Дьявольский мед Скачать торрент  

а в лучшем качестве есть?pb.wtf



12-06-2018 06:22 Дьявольский мед Скачать торрент  

Caня писал(а):

а в лучшем качестве есть?

А этот чем тебе плох?pb.wtf



12-06-2018 07:57 Дьявольский мед Скачать торрент  

Smokke 01 писал(а):

Перевод: Авторский (одноголосый)

Smokke 01, автор перевода - Владимир Штейн?
Укажите, пожалуйста, в описании и в заголовке.pb.wtf



    Дорогой пользователь! Огромная просьба, поблагодарите релизера, оцените раздачу и оставьте свои комментарий, если Вы скачали Дьявольский мед через торрент бесплатно!
    Комментировать посты могут только пользователи прошедшие не сложную регистрацию
    Показать сообщения:    

    Дьявольский мед через торрент
    Скачать бесплатно Дьявольский мед
    Дьявольский мед скачать торрент
    Дьявольский мед смотреть онлайн
    Cкачать фильм Дьявольский мед бесплатно
    Дьявольский мед скачать торрент в хорошем качестве
    Дьявольский мед смотреть онлайн бесплатно в хорошем качестве


    Вы не можете начинать темы
    Вы не можете отвечать на сообщения
    Вы не можете редактировать свои сообщения
    Вы не можете удалять свои сообщения
    Вы не можете голосовать в опросах
    Вы не можете прикреплять файлы к сообщениям
    Вы можете скачивать файлы