Достать ножи: Стеклянная луковица

MVO

Добыча

Дубляж

Уэнсдэй

1 сезон

Тор

Дубляж

13 клиническая

1 сезон

Жестокая ночь

MVO

Одни из нас

1 сезон

Deluxe

pack

Рекомендуем

30

Пиратка

ВАЖНО

ВАЖНО

Ghostwire

Пиратка

jed

RePack

nioh2

RePack

RDR2

RePack

NEED FOR SPEED™ PAYBACK

RePack

скачать торрент

Кинопоиск HD

Острые козырьки 6 сезон

6 сезон

FAR CRY 6

RePack

скачать торрент

Лицензия

скачать торрент

MVO

1

1 сезон

скачать торрент

1 сезон

скачать торрент

Лицензия

  

Париж. Город Zомби / The Night Eats the World / La nuit a dévoré le monde (Доминик Роше) [2018, Ужасы, BDRip 1080p] AVO [BadBajo]

Париж. Город Zомби через торрент pb.wtf

Размер: 7.84 GB | Добавлен: 4 года 7 мес. назад | Торрент скачан:181 раз
Смотреть онлайн | Скачать | Поддержите нас   

12-06-2018 07:10 Париж. Город Zомби Скачать торрент  

Париж. Город Zомби / The Night Eats the World / La nuit a dévoré le monde
Год выпуска: 2018
Страна: Франция
Жанр: Ужасы
Продолжительность: 01:33:25
Перевод: Авторский (одноголосый) |
Субтитры: отсутствуют

Режиссер: Доминик Роше

rating Семпл

В ролях:

Андерс Даниелсен Лье, Голшифте Фарахани, Дени Лаван, Сигрид Буази, Дэвид Камменос, Жан-Ив Силли, Нэнси Мурильо, Лина-Роуз Джедже, Виктор Ван Дер Верд, Лео Пуле, Дебора Марике, Тесс Оссини Будебессе Беджани

Описание:

На утро после шумной вечеринки Сэм обнаруживает, что его бывшая, ее новый бойфренд и вообще все вокруг превратились в зомби. И единственное место на весь Париж, где он может чувствовать себя в безопасности, — это квартира, где он проснулся. Что делать? Бежать или остаться? Защищаться или нападать самому?

Качество: BDRip 1080p
Формат: MKV

Видео: 1920х1040, ~8541 Kbps, 23.976 (24000/1001) FPS
Аудио#1: Русский: DTS, 6 ch, 1509 Кбит/с (BadBajo)
Аудио#2: Русский: AC3, 6 ch, 448 Кбит/с (BadBajo)
Аудио#3: Английский: DTS, 6 ch, 1509 Кбит/с
скриншот   скриншот   скриншот   скриншот  скриншот  

Общее
Уникальный идентификатор : 267844705296291464497673675919183230620 (0xC981038ADBE78CAE02A87F65DECAB69C)
Полное имя : E:\La_nuit_a_devore_le_monde_2018_rus_BadBajo.mkv
Формат : Matroska
Версия формата : Version 4 / Version 2
Размер файла : 7,84 Гбайт
Продолжительность : 1 ч. 33 м.
Общий поток : 12,0 Мбит/сек
Название фильма : La_nuit_a_devore_le_monde_2018_rus_BadBajo
Дата кодирования : UTC 2018-06-11 17:34:49
Программа кодирования : mkvmerge v20.0.0 ('I Am The Sun') 64-bit
Библиотека кодирования : libebml v1.3.5 + libmatroska v1.4.8
Обложка : Yes
Attachments : cover.jpg

Видео
Идентификатор : 1
Формат : AVC
Формат/Информация : Advanced Video Codec
Профиль формата : [email protected]
Настройки формата : CABAC / 4 Ref Frames
Параметр CABAC формата : Да
Параметр RefFrames формата : 4 кадра
Идентификатор кодека : V_MPEG4/ISO/AVC
Продолжительность : 1 ч. 33 м.
Битрейт : 8541 Кбит/сек
Ширина : 1920 пикселей
Высота : 1040 пикселей
Соотношение сторон : 1,85:1
Режим частоты кадров : Постоянный
Частота кадров : 24,000 кадра/сек
Цветовое пространство : YUV
Субдискретизация насыщенности : 4:2:0
Битовая глубина : 8 бит
Тип развёртки : Прогрессивная
Бит/(Пиксели*Кадры) : 0.178
Размер потока : 5,42 Гбайт (69%)
Библиотека кодирования : x264 core 155 r2901 7d0ff22
Настройки программы : cabac=1 / ref=4 / deblock=1:0:0 / analyse=0x3:0x113 / me=umh / subme=8 / psy=1 / psy_rd=1.00:0.00 / mixed_ref=1 / me_range=16 / chroma_me=1 / trellis=2 / 8x8dct=1 / cqm=0 / deadzone=21,11 / fast_pskip=0 / chroma_qp_offset=-2 / threads=12 / lookahead_threads=2 / sliced_threads=0 / nr=0 / decimate=1 / interlaced=0 / bluray_compat=0 / constrained_intra=0 / bframes=3 / b_pyramid=2 / b_adapt=1 / b_bias=0 / direct=1 / weightb=1 / open_gop=0 / weightp=2 / keyint=250 / keyint_min=24 / scenecut=40 / intra_refresh=0 / rc_lookahead=50 / rc=2pass / mbtree=1 / bitrate=8541 / ratetol=1.0 / qcomp=0.60 / qpmin=0 / qpmax=69 / qpstep=4 / cplxblur=20.0 / qblur=0.5 / ip_ratio=1.40 / aq=1:1.00
Default : Да
Forced : Нет

Аудио #1
Идентификатор : 2
Формат : DTS
Формат/Информация : Digital Theater Systems
Идентификатор кодека : A_DTS
Продолжительность : 1 ч. 33 м.
Вид битрейта : Постоянный
Битрейт : 1510 Кбит/сек
Каналы : 6 каналов
Расположение каналов : Front: L C R, Side: L R, LFE
Частота : 48,0 КГц
Частота кадров : 93,750 кадра/сек (512 SPF)
Битовая глубина : 24 бит
Метод сжатия : С потерями
Размер потока : 1009 Мбайт (13%)
Заголовок : La_nuit_a_devore_le_monde_2018_DTS_rus_BadBajo
Язык : Russian
Default : Да
Forced : Да

Аудио #2
Идентификатор : 3
Формат : AC-3
Формат/Информация : Audio Coding 3
Идентификатор кодека : A_AC3
Продолжительность : 1 ч. 33 м.
Вид битрейта : Постоянный
Битрейт : 448 Кбит/сек
Каналы : 6 каналов
Расположение каналов : Front: L C R, Side: L R, LFE
Частота : 48,0 КГц
Частота кадров : 31,250 кадров/сек (1536 SPF)
Битовая глубина : 16 бит
Метод сжатия : С потерями
Размер потока : 299 Мбайт (4%)
Заголовок : La_nuit_a_devore_le_monde_2018_AC3_rus_BadBajo
Язык : Russian
ServiceKind/String : Complete Main
Default : Нет
Forced : Нет

Аудио #3
Идентификатор : 4
Формат : DTS
Формат/Информация : Digital Theater Systems
Идентификатор кодека : A_DTS
Продолжительность : 1 ч. 33 м.
Вид битрейта : Постоянный
Битрейт : 1509 Кбит/сек
Каналы : 6 каналов
Расположение каналов : Front: L C R, Side: L R, LFE
Частота : 48,0 КГц
Частота кадров : 93,750 кадра/сек (512 SPF)
Битовая глубина : 24 бит
Метод сжатия : С потерями
Размер потока : 1008 Мбайт (13%)
Язык : English
Default : Нет
Forced : Нет




Скачать Париж. Город Zомби через торрент http://img12.lostpic.net/2018/06/12/1e8b599e1d9e54b25dada2de47b3ccee.jpg Скачать, смотреть онлайн Париж. Город Zомби бесплантно в хорошем качестве Описание: На утро после шумной вечеринки Сэм обнаруживает, что его бывшая, ее новый бойфренд и вообще все вокруг превратились в зомби. И ... 10 10 6
Торрент: Зарегистрирован [2018-06-12 07:10] · скачан: 181 раз
Статус: T временная
Размер: 7.84 GB
Как cкачать? Как скачать Париж. Город Zомби через торрент | UTorrent

% Раздел Тема Автор DL S | L
Фильмы [HD 720p, 1080p] (Хороший звук DUB, MVO) [ 7.24 GB ] Париж. Город Zомби / The Night Eats the World / La nuit a dévoré le monde | iTunes | 1080p bober100 Скачать
2 | 0
Фильмы 2018 [DVDrip, WEB-DLRip, HDrip] (DUB, MVO) [ 1.42 GB ] Париж. Город Zомби / The Night Eats the World / La nuit a dévoré le monde | Лицензия | BDRip Twi7ter Скачать
1 | 0
Фильмы 2018 [DVDrip, WEB-DLRip, HDrip] (DUB, MVO) [ 1.55 GB ] Париж. Город Zомби / The Night Eats the World / La nuit a dévoré le monde | iTunes | BDRip-AVC bober100 Скачать
1 | 0
Фильмы 2018 [DVDrip, WEB-DLRip, HDrip] (DUB, MVO) [ 745 MB ] Париж. Город Zомби / The Night Eats the World / La nuit a dévoré le monde | iTunes | BDRip bober100 Скачать
1 | 0
Фильмы (Blu-ray, BD-Remux, HDDVD) [ 16.12 GB ] Париж. Город Zомби / The Night Eats the World / La nuit a dévoré le monde | iTunes | BD Remux 1080p bober100 Скачать
1 | 0
Фильмы с авторской озвучкой [ 1.46 GB ] Париж. Город Zомби / The Night Eats the World / La nuit a dévoré le monde | AVO | BDRip Twi7ter Скачать
1 | 0

28-11-2019 20:33  


Отключить вcю реклaмy на сайте, в т.ч. и в плеере онлайн просмотра!

12-06-2018 16:42 Париж. Город Zомби Скачать торрент  

довольно интересный неспешный фильмец.



    Дорогой пользователь! Огромная просьба, поблагодарите релизера, оцените раздачу и оставьте свои комментарий, если Вы скачали Париж. Город Zомби через торрент бесплатно!!
    Комментировать посты могут только пользователи прошедшие не сложную регистрацию
    Показать сообщения:    


    Париж. Город Zомби через торрент
    Скачать бесплатно Париж. Город Zомби
    Париж. Город Zомби скачать торрент
    Париж. Город Zомби смотреть онлайн
    Cкачать фильм Париж. Город Zомби бесплатно
    Париж. Город Zомби скачать торрент в хорошем качестве
    Париж. Город Zомби смотреть онлайн бесплатно в хорошем качестве
    Вы не можете начинать темы
    Вы не можете отвечать на сообщения
    Вы не можете редактировать свои сообщения
    Вы не можете удалять свои сообщения
    Вы не можете голосовать в опросах
    Вы не можете прикреплять файлы к сообщениям
    Вы можете скачивать файлы
    Париж. Город Zомби / The Night Eats the World / La nuit a dévoré le monde [2018, Ужасы, BDRip 1080p] AVO [BadBajo] смотреть онлайн, скачать торрент picoco.icu