Всегда рабочее зеркало без VPN и Proxy просто перед .vidak.icu напиши любое слово или цифру, Пример http://l02l.vidak.icu

MVO

Лицензия

1 сезон

1

1 сезон

iTunes

1 сезон

13

1 сезон

Deluxe

pack

Рекомендуем

Пиратка

30

ВАЖНО

RePack

MK11

RePack

jed

RePack

fifa19

RePack

RDR2

RePack

NEED FOR SPEED™ PAYBACK

Кинопоиск HD

6 сезон

 Острые козырьки 6 сезон

Все сериалы

все сериалы на PB.wtf

RePack

FAR CRY 5
  
Magnet ссылка

Tomb Raider: Лара Крофт / Tomb Raider (Роар Утхауг) [2018, боевик, приключения, BDRip-HEVC 1080p, 10 Bit] AVO [BadBajo] +MVO [HDrezka Studio] +DUB [Лицензия] pb.wtf

Tomb Raider: Лара Крофт через торрент pb.wtf

Раздают: 1 [ 0 KB/s ]
Размер: 8.98 GB | Добавлен: 4 года назад | Торрент скачан:863 раза
Смотреть онлайн Tomb Raider: Лара Крофт | Скачать    Ребята, помогите собрать деньги на оплату серверов!!!

12-06-2018 07:16 Tomb Raider: Лара Крофт Скачать торрент  

Tomb Raider: Лара Крофт / Tomb Raider
Год выпуска: 2018
Страна: Великобритания, США
Жанр: боевик, приключения
Продолжительность: 01:57:50
Перевод:

#1. Дублированный | Лицензия
#2. Профессиональный (многоголосый) | HDRezka studio
#3. Авторский (одноголосый) | BadBajo

Субтитры: Русские (forced, full), английские

Режиссер: Роар Утхауг

rating

В ролях:

Алисия Викандер, Доминик Уэст, Уолтон Гоггинс, Дэниэл Ву, Кристин Скотт Томас, Дерек Джекоби, Александр Виллауме, Тамер Барджаг, Эдриан Коллинз

Описание:

Лара Крофт - весьма самостоятельная дочь эксцентричного искателя приключений, который пропал, едва она стала подростком. Теперь ей двадцать один, она бесцельно проживает свою жизнь, курьером рассекая на байке по забитым улицам восточного Лондона, а ее заработка едва хватает на оплату квартиры и занятий в колледже. Решительно настроенная пробиться сама, она отказывается брать на себя руководство глобальной империей отца, столь же категорично отвергая мысль о том, что он действительно пропал. Слыша советы о том, что ей нужно смириться с этим фактом и жить дальше после семи лет бесплодных поисков, Лара уже и сама не понимает, что же заставляет ее распутывать обстоятельства его таинственной смерти.

Качество: BDRip-HEVC 1080p | 10 Bit
Формат: MKV

Видео: 1920x802 (2.40:1), 8375 Кбит/сек, 0.227 бит/(Пиксели*Кадры), 23,976 кадр/сек (24000/1001), HEVC (Main10@L.4.1@High) 10 бит
Аудио#1: Русская, AC3, 448 Кбит/сек, Front: L C R, Side: L R, LFE, 48,0 КГц (Дубляж лицензия)
Аудио#2: Русская, AC3, 640 Кбит/сек, Front: L C R, Side: L R, LFE, 48,0 КГц (MVO HDrezka Studio)
Аудио#3: Русская, AC3, 640 Кбит/сек, Front: L C R, Side: L R, LFE, 48,0 КГц (AVO BadBajo)
Аудио#4: Украинская, AC3, 192 Кбит/сек, Front: L R, 48,0 КГц (Дубляж Украина)
Аудио#5: Английская, AC3, 448 Кбит/сек, Front: L C R, Side: L R, LFE, 48,0 КГц (Оригинал)
скриншот   скриншот   скриншот   скриншот   скриншот  

Общее
Уникальный идентификатор : 256905872779771894936011721317349307168 (0xC1464575B8E9EA2D90D0339B3047B320)
Полное имя : H:HEVC 210 BITTomb Raider_2018_BDRip_1080p_[HEVC]_10bit_by XuMuK.mkv
Формат : Matroska
Версия формата : Version 4 / Version 2
Размер файла : 8,98 Гбайт
Продолжительность : 1 ч. 57 м.
Общий поток : 10,9 Мбит/сек
Название фильма : HEVC by XuMuK
Дата кодирования : UTC 2018-06-10 14:03:29
Программа кодирования : mkvmerge v23.0.0 ('The Bride Said No') 64-bit
Библиотека кодирования : libebml v1.3.6 + libmatroska v1.4.9
Обложка : Yes
Attachments : cover.jpg

Видео
Идентификатор : 1
Формат : HEVC
Формат/Информация : High Efficiency Video Coding
Профиль формата : Main 10@L4.1@High
Идентификатор кодека : V_MPEGH/ISO/HEVC
Продолжительность : 1 ч. 57 м.
Битрейт : 8544 Кбит/сек
Ширина : 1920 пикселей
Высота : 802 пикселя
Соотношение сторон : 2,40:1
Режим частоты кадров : Постоянный
Частота кадров : 23,976 (24000/1001) кадра/сек
Цветовое пространство : YUV
Субдискретизация насыщенности : 4:2:0
Битовая глубина : 10 бит
Бит/(Пиксели*Кадры) : 0.231
Размер потока : 7,03 Гбайт (78%)
Библиотека кодирования : x265 2.7+351-d3b714bd5471:[Windows][GCC 8.1.0][64 bit] 10bit
Настройки программы : cpuid=1111039 / frame-threads=4 / numa-pools=16 / wpp / no-pmode / no-pme / no-psnr / no-ssim / log-level=2 / input-csp=1 / input-res=1920x802 / interlace=0 / total-frames=169521 / level-idc=41 / high-tier=1 / uhd-bd=0 / ref=5 / no-allow-non-conformance / no-repeat-headers / annexb / no-aud / no-hrd / info / hash=0 / no-temporal-layers / open-gop / min-keyint=23 / keyint=240 / gop-lookahead=0 / bframes=8 / b-adapt=2 / b-pyramid / bframe-bias=0 / rc-lookahead=60 / lookahead-slices=4 / scenecut=40 / radl=0 / no-intra-refresh / ctu=64 / min-cu-size=8 / rect / amp / max-tu-size=32 / tu-inter-depth=4 / tu-intra-depth=1 / limit-tu=1 / rdoq-level=1 / dynamic-rd=0.00 / no-ssim-rd / signhide / no-tskip / nr-intra=0 / nr-inter=0 / no-constrained-intra / no-strong-intra-smoothing / max-merge=3 / limit-refs=2 / limit-modes / me=3 / subme=7 / merange=57 / temporal-mvp / weightp / weightb / no-analyze-src-pics / deblock=-3:-3 / no-sao / no-sao-non-deblock / rd=6 / no-early-skip / rskip / no-fast-intra / no-tskip-fast / no-cu-lossless / b-intra / no-splitrd-skip / rdpenalty=0 / psy-rd=2.00 / psy-rdoq=1.00 / no-rd-refine / no-lossless / cbqpoffs=-2 / crqpoffs=-2 / rc=crf / crf=18.0 / qcomp=0.75 / qpstep=4 / stats-write=0 / stats-read=0 / vbv-maxrate=50000 / vbv-bufsize=50000 / vbv-init=0.9 / crf-max=0.0 / crf-min=0.0 / ipratio=1.40 / pbratio=1.30 / aq-mode=1 / aq-strength=1.00 / cutree / zone-count=1 / zones: / start-frame=160189 / end-frame=169521 / qp=35 / no-strict-cbr / qg-size=32 / no-rc-grain / qpmax=69 / qpmin=0 / no-const-vbv / sar=1 / overscan=0 / videoformat=5 / range=0 / colorprim=1 / transfer=1 / colormatrix=1 / chromaloc=0 / display-window=0 / max-cll=0,0 / min-luma=0 / max-luma=1023 / log2-max-poc-lsb=8 / vui-timing-info / vui-hrd-info / slices=1 / no-opt-qp-pps / no-opt-ref-list-length-pps / no-multi-pass-opt-rps / scenecut-bias=0.05 / no-opt-cu-delta-qp / no-aq-motion / no-hdr / no-hdr-opt / no-dhdr10-opt / no-idr-recovery-sei / analysis-reuse-level=5 / scale-factor=0 / refine-intra=0 / refine-inter=0 / refine-mv=0 / no-limit-sao / ctu-info=0 / no-lowpass-dct / refine-mv-type=0 / copy-pic=1 / max-ausize-factor=1.0 / no-dynamic-refine / no-single-sei
Default : Да
Forced : Нет
Цветовой диапазон : Limited
Основные цвета : BT.709
Характеристики трансфера : BT.709
Коэффициенты матрицы : BT.709

Аудио #1
Идентификатор : 2
Формат : AC-3
Формат/Информация : Audio Coding 3
Идентификатор кодека : A_AC3
Продолжительность : 1 ч. 57 м.
Вид битрейта : Постоянный
Битрейт : 448 Кбит/сек
Каналы : 6 каналов
Расположение каналов : Front: L C R, Side: L R, LFE
Частота : 48,0 КГц
Частота кадров : 31,250 кадров/сек (1536 SPF)
Битовая глубина : 16 бит
Метод сжатия : С потерями
Размер потока : 378 Мбайт (4%)
Заголовок : Дубляж
Язык : Russian
ServiceKind : Complete Main
Default : Да
Forced : Да

Аудио #2
Идентификатор : 3
Формат : AC-3
Формат/Информация : Audio Coding 3
Идентификатор кодека : A_AC3
Продолжительность : 1 ч. 57 м.
Вид битрейта : Постоянный
Битрейт : 640 Кбит/сек
Каналы : 6 каналов
Расположение каналов : Front: L C R, Side: L R, LFE
Частота : 48,0 КГц
Частота кадров : 31,250 кадров/сек (1536 SPF)
Битовая глубина : 16 бит
Метод сжатия : С потерями
Размер потока : 539 Мбайт (6%)
Заголовок : MVO HDrezka Studio
Язык : Russian
ServiceKind : Complete Main
Default : Нет
Forced : Нет

Аудио #3
Идентификатор : 4
Формат : AC-3
Формат/Информация : Audio Coding 3
Идентификатор кодека : A_AC3
Продолжительность : 1 ч. 57 м.
Вид битрейта : Постоянный
Битрейт : 640 Кбит/сек
Каналы : 6 каналов
Расположение каналов : Front: L C R, Side: L R, LFE
Частота : 48,0 КГц
Частота кадров : 31,250 кадров/сек (1536 SPF)
Битовая глубина : 16 бит
Метод сжатия : С потерями
Размер потока : 539 Мбайт (6%)
Заголовок : AVO BadBajo
Язык : Russian
ServiceKind : Complete Main
Default : Нет
Forced : Нет

Аудио #4
Идентификатор : 5
Формат : AC-3
Формат/Информация : Audio Coding 3
Идентификатор кодека : A_AC3
Продолжительность : 1 ч. 57 м.
Вид битрейта : Постоянный
Битрейт : 192 Кбит/сек
Каналы : 2 канала
Расположение каналов : Front: L R
Частота : 48,0 КГц
Частота кадров : 31,250 кадров/сек (1536 SPF)
Битовая глубина : 16 бит
Метод сжатия : С потерями
Размер потока : 162 Мбайт (2%)
Заголовок : Дублированный Украина
Язык : Ukrainian
ServiceKind : Complete Main
Default : Нет
Forced : Нет

Аудио #5
Идентификатор : 6
Формат : AC-3
Формат/Информация : Audio Coding 3
Идентификатор кодека : A_AC3
Продолжительность : 1 ч. 57 м.
Вид битрейта : Постоянный
Битрейт : 448 Кбит/сек
Каналы : 6 каналов
Расположение каналов : Front: L C R, Side: L R, LFE
Частота : 48,0 КГц
Частота кадров : 31,250 кадров/сек (1536 SPF)
Битовая глубина : 16 бит
Метод сжатия : С потерями
Размер потока : 378 Мбайт (4%)
Заголовок : Оригинал
Язык : English
ServiceKind : Complete Main
Default : Нет
Forced : Нет

Текст #1
Идентификатор : 7
Формат : UTF-8
Идентификатор кодека : S_TEXT/UTF8
Идентификатор кодека/Информация : UTF-8 Plain Text
Продолжительность : 1 ч. 56 м.
Битрейт : 0 бит/сек
ElementCount : 24
Размер потока : 852 байт (0%)
Заголовок : RUS Forced
Язык : Russian
Default : Да
Forced : Нет

Текст #2
Идентификатор : 8
Формат : UTF-8
Идентификатор кодека : S_TEXT/UTF8
Идентификатор кодека/Информация : UTF-8 Plain Text
Продолжительность : 1 ч. 56 м.
Битрейт : 40 бит/сек
ElementCount : 859
Размер потока : 34,9 Кбайт (0%)
Заголовок : RUS Full
Язык : Russian
Default : Нет
Forced : Нет

Текст #3
Идентификатор : 9
Формат : UTF-8
Идентификатор кодека : S_TEXT/UTF8
Идентификатор кодека/Информация : UTF-8 Plain Text
Продолжительность : 1 ч. 50 м.
Битрейт : 31 бит/сек
ElementCount : 943
Размер потока : 25,2 Кбайт (0%)
Заголовок : ENG Full
Язык : English
Default : Нет
Forced : Нет

Меню
00:00:00.000 : en:Chapter 1
00:13:13.250 : en:Chapter 2
00:24:04.234 : en:Chapter 3
00:31:57.999 : en:Chapter 4
00:39:57.061 : en:Chapter 5
00:50:31.069 : en:Chapter 6
01:04:49.844 : en:Chapter 7
01:13:58.100 : en:Chapter 8
01:20:17.395 : en:Chapter 9
01:27:41.130 : en:Chapter 10
01:38:41.624 : en:Chapter 11
01:51:17.420 : en:Chapter 12

pb.wtf



Скачать Tomb Raider: Лара Крофт через торрент http://img12.lostpic.net/2018/06/09/60d7298d4b664428174af4f07b071bc5.jpg Скачать, смотреть онлайн Tomb Raider: Лара Крофт бесплантно в хорошем качестве Описание: Лара Крофт - весьма самостоятельная дочь эксцентричного искателя приключений, который пропал, едва она стала подростком. Теперь ... 9.7 10 23
Info! Золотая раздача, скачанное не засчитывается.
Торрент: Зарегистрирован [2018-06-12 07:16] · скачан: 863 раз
Статус: √ проверено
Размер: 8.98 GB
Как cкачать? Как скачать Tomb Raider: Лара Крофт через торрент | UTorrent

% Раздел Тема Автор DL S | L
Ultra HD (UHD: 2K, 4K, 8K) — видео сверхвысокой чёткости [ 43.55 GB ] Tomb Raider: Лара Крофт / Tomb Raider [2018 UHD BDRemux 2160p] DUB [Dolby Vision] sheker187 Скачать
1 | 0
Фильмы [HD 720p, 1080p] (Хороший звук DUB, MVO) [ 7.31 GB ] Лара Крофт: Расхитительница гробниц / Lara Croft: Tomb Raider [2001 BDRip-HEVC 1080p ] DUB+DVO+AVO bober100 Скачать
1 | 0
Ultra HD (UHD: 2K, 4K, 8K) — видео сверхвысокой чёткости [ 51.69 GB ] Лара Крофт: Расхитительница гробниц 2 – Колыбель жизни / Lara Croft Tomb Raider: The Cradle of Life [2003 UHD BDRemux 2160p] DUB [Dolby Vision] sheker187 Скачать
1 | 0
Ultra HD (UHD: 2K, 4K, 8K) — видео сверхвысокой чёткости [ 45.52 GB ] Лара Крофт: Расхитительница гробниц / Lara Croft: Tomb Raider [2001 UHD BDRemux 2160p] DUB [Dolby Vision] sheker187 Скачать
1 | 0
Ultra HD (UHD: 2K, 4K, 8K) — видео сверхвысокой чёткости [ 30.06 GB ] Tomb Raider: Лара Крофт / Tomb Raider [2018 UHD BDRip 2160p] [SDR] DUB + MVO + AVO sheker187 Скачать
1 | 0
Фильмы 2018 [DVDrip, WEB-DLRip, HDrip] (DUB, MVO) [ 746 MB ] Tomb Raider: Лара Крофт / Tomb Raider [2018 BDRip] DUB [] bober100 Скачать
1 | 0
Фильмы (Blu-ray, BD-Remux, HDDVD) [ 37.68 GB ] Tomb Raider: Лара Крофт / Tomb Raider [2018 BD Remux 1080p] [2D 3D] DUB [] bober100 Скачать
1 | 0

28-11-2019 20:33  

Отключить всю рекламу на сайте

17-06-2018 13:53 Tomb Raider: Лара Крофт Скачать торрент  

зря потраченное время если тебе не 14 летpb.wtf



17-06-2018 15:39 Tomb Raider: Лара Крофт Скачать торрент  

ivaney писал(а):

зря потраченное время если тебе не 14 лет

ага, только не забывает что ты тратишь намного больше времени впустую вставая на работу в 7 утра и проводя там большую часть своей жизни......РАБ системы xDDDpb.wtf



23-06-2018 11:07 Tomb Raider: Лара Крофт Скачать торрент  

ivaney писал(а):

зря потраченное время если тебе не 14 лет

Это слишком предвзятое мнение, я видал картины и похуже, так что какать не надо, фильм нормально-одноразовый ..

диман063 писал(а):

ivaney писал(а):

зря потраченное время если тебе не 14 лет

ага, только не забывает что ты тратишь намного больше времени впустую вставая на работу в 7 утра и проводя там большую часть своей жизни......РАБ системы xDDD

согласен...pb.wtf



12-07-2018 16:52 Tomb Raider: Лара Крофт Скачать торрент  

так себе кено. 1 раз посмотреть и не больше.pb.wtf



27-08-2018 16:00 Tomb Raider: Лара Крофт Скачать торрент  

edapush писал(а):

так себе кено. 1 раз посмотреть и не больше.

кЕно, которое можно посмотреть хотя бы ДВАЖДЫ, на моей памяти не более 50. ТРИ раза я смог осилить только около 10 фильмовpb.wtf



    Дорогой пользователь! Огромная просьба, поблагодарите релизера, оцените раздачу и оставьте свои комментарий, если Вы скачали Tomb Raider: Лара Крофт через торрент бесплатно!
    Комментировать посты могут только пользователи прошедшие не сложную регистрацию
    Показать сообщения:    

    Tomb Raider: Лара Крофт через торрент
    Скачать бесплатно Tomb Raider: Лара Крофт
    Tomb Raider: Лара Крофт скачать торрент
    Tomb Raider: Лара Крофт смотреть онлайн
    Cкачать фильм Tomb Raider: Лара Крофт бесплатно
    Tomb Raider: Лара Крофт скачать торрент в хорошем качестве
    Tomb Raider: Лара Крофт смотреть онлайн бесплатно в хорошем качестве


    Вы не можете начинать темы
    Вы не можете отвечать на сообщения
    Вы не можете редактировать свои сообщения
    Вы не можете удалять свои сообщения
    Вы не можете голосовать в опросах
    Вы не можете прикреплять файлы к сообщениям
    Вы можете скачивать файлы