2 сезон

iTunes

MVO

1

2 сезон

iTunes

iTunes

1 сезон

RePack

30

Новинка

ВАЖНО

ИГРА 18+

pack

RePack

MK11
pack

Легкие деньги

RePack

jed

RePack

fifa19

RePack

RDR2

RePack

NEED FOR SPEED™ PAYBACK

4 сезон

9 сезон

Бесстыжие 9 сезон

Все сериалы

все сериалы на PB.wtf

RePack

FAR CRY 5

Anonymous, доброй ночи, мы не успеваем собрать деньги на оплату серверов за декабрь и январь, помогите нам пожалуйста в это трудное время. В качестве благодарности мы отключим Вам всю рекламу на сайте (укажите свой ник в строку Ваше имя)!

×
  
Magnet ссылка

Вечеринка / The Party (Салли Поттер) [2017, драма, комедия, HDRip] MVO [Jaskier] pb.wtf

Вечеринка через торрент pb.wtf

Размер: 1.36 GB | Добавлен: 2 года 7 мес. назад | Торрент скачан:225 раз
Скачать  

12-06-2018 15:19 Вечеринка Скачать торрент  

Вечеринка / The Party
««Комедия трагических обстоятельств»»

Год выпуска: 2017
Страна: Великобритания
Жанр: драма, комедия

Продолжительность: 01:10:42
Перевод: Профессиональный многоголосый [Jaskier]
Примечание: Релиз без рекламы
Режиссер: Салли Поттер
В ролях:

Тимоти Сполл (Bill), Кристин Скотт Томас (Janet), Патришия Кларксон (April), Бруно Ганц (Gottfried), Черри Джонс (Martha), Эмили Мортимер (Jinny), Киллиан Мёрфи (Tom)
Описание:
Дома у Билла и Джэнет собираются старые друзья - посидеть, выпить вина, поделиться новостями, тем более, что в жизни всех участников встречи происходит что-то интересное. Вечер удался бы на славу, но тут Билл сделал такое заявление, что настроение у всех резко испортилось. Теперь старые друзья уже готовы вцепиться друг другу в глотку, как в переносном, так и во вполне прямом смысле.
Рейтинг:
rating
MPAA: R - Лицам до 17 лет обязательно присутствие взрослого
Качество: HDRip
Формат: AVI
Видео: XviD, 720x304 (2.35:1), 2299 kbps, 24 fps, 0,438 bpp
Аудио: AC3 / 5.1 / 48 kHz / 448 kbps /

General
Complete name : F:\The.Party.2017.HDRip.Jaskier.avi
Format : AVI
Format/Info : Audio Video Interleave
File size : 1.36 GiB
Duration : 1 h 10 min
Overall bit rate : 2 757 kb/s
Writing application : VirtualDubMod 1.5.10.3 | www.virtualdub-fr.org || (build 2550/release)
Writing library : VirtualDubMod build 2550/release

Video
ID : 0
Format : MPEG-4 Visual
Format profile : Advanced Simple@L5
Format settings, BVOP : 2
Format settings, QPel : No
Format settings, GMC : No warppoints
Format settings, Matrix : Custom
Codec ID : XVID
Codec ID/Hint : XviD
Duration : 1 h 10 min
Bit rate : 2 299 kb/s
Width : 720 pixels
Height : 304 pixels
Display aspect ratio : 2.35:1
Frame rate : 24.000 FPS
Color space : YUV
Chroma subsampling : 4:2:0
Bit depth : 8 bits
Scan type : Progressive
Compression mode : Lossy
Bits/(Pixel*Frame) : 0.438
Stream size : 1.14 GiB (83%)
Writing library : XviD 73

Audio
ID : 1
Format : AC-3
Format/Info : Audio Coding 3
Mode extension : CM (complete main)
Format settings, Endianness : Big
Codec ID : 2000
Duration : 1 h 10 min
Bit rate mode : Constant
Bit rate : 448 kb/s
Channel(s) : 6 channels
Channel positions : Front: L C R, Side: L R, LFE
Sampling rate : 48.0 kHz
Frame rate : 31.250 FPS (1536 spf)
Compression mode : Lossy
Stream size : 227 MiB (16%)
Alignment : Split accross interleaves
Interleave, duration : 42 ms (1.00 video frame)
Interleave, preload duration : 500 ms
pb.wtf



Скачать Вечеринка через торрент http://i104.fastpic.ru/big/2018/0612/86/7e57b384c11e7b2964f2e80433c6fb86.png Скачать фильм Вечеринка через торрент бесплантно в хорошем качестве Описание: Дома у Билла и Джэнет собираются старые друзья - посидеть, выпить вина, поделиться новостями, тем более, что в жизни всех ... 10 10 2
Торрент: Зарегистрирован [2018-06-12 15:19] · скачан: 225 раз
Статус: √ проверено
Размер: 1.36 GB
Как cкачать? Как скачать Вечеринка через торрент | UTorrent

% Раздел Тема Автор DL S | L
T Фильмы (мультфильмы) cо спонсором показа (Новинки AVI/MKV) [ 1.37 GB ] Цыплячья вечеринка / The Chicken Party [2018 WEB-DLRip] MVO ["Синема УС"] bober100 Скачать
1 | 0
T Фильмы (WEB-DL 720p, 1080p) [ 3.28 GB ] Вечеринка в честь развода / The Divorce Party [2019 WEB-DL 1080p] MVO [HDRezka Studio] bober100 Скачать
1 | 0
T Фильмы 2019-2020 [DVDrip, WEB-DLRip, HDrip] (DUB, MVO) [ 1.45 GB ] Вечеринка в честь развода / The Divorce Party [2019 Мело HDRip] MVO [HDRezka Studio] - ExKinoRay Enigma2010 Скачать
1 | 0
T Фильмы (мультфильмы) cо спонсором показа (Новинки AVI/MKV) [ 3.42 GB ] Вечеринка только начинается / The Party's Just Beginning [2018 WEB-DL 720p] MVO ["Синема УС"] bober100 Скачать
1 | 0
T Фильмы (мультфильмы) cо спонсором показа (Новинки AVI/MKV) [ 1.37 GB ] Вечеринка только начинается / The Party's Just Beginning [2018 WEB-DLRip] MVO ["Синема УС"] bober100 Скачать
1 | 0
Фильмы 2014 (Звук TS, Cam, VO, DVO) [ 1.4 GB ] Убойная вечеринка / Killer Party [2014 WEBRip-AVC] [VO] killermax2013 Скачать
1 | 0
Фильмы [HD 720p, 1080p] (Хороший звук DUB, MVO) [ 6.78 GB ] Вечеринка / The Party [2017 BDRip 1080p] MVO [Jaskier] -Lexx- Скачать
1 | 0

28-11-2019 20:33  

Отключить всю рекламу на сайте

    Дорогой пользователь! Огромная просьба, поблагодарите релизера, оцените раздачу и оставьте свои комментарий, если Вы скачали Вечеринка через торрент бесплатно! Внесите свою лепту в развитие PiratBit!
    Комментировать посты могут только пользователи прошедшие не сложную регистрацию
    Показать сообщения:    

    Вечеринка через торрент
    Скачать бесплатно Вечеринка
    Вечеринка скачать торрент
    Вечеринка смотреть онлайн
    Cкачать фильм Вечеринка бесплатно
    Вечеринка скачать торрент в хорошем качестве
    Вечеринка смотреть онлайн бесплатно в хорошем качестве


    Вы не можете начинать темы
    Вы не можете отвечать на сообщения
    Вы не можете редактировать свои сообщения
    Вы не можете удалять свои сообщения
    Вы не можете голосовать в опросах
    Вы не можете прикреплять файлы к сообщениям
    Вы можете скачивать файлы