Marvel's Avengers Deluxe Edition (супер цена) 159р. Внимание количество ограничено!!!

2 сезон

iTunes

iTunes

1

iTunes

iTunes

iTunes

WEBRip

iTunes

30
pack

Новость дня

ВАЖНО

!!Акция!!

Alien_RageХит недели

RePack

Horizon Zero Dawn

ИГРА 18+

pack

RePack

jed

!!Акция!!

Alien_Rage

RePack

fifa19

RePack

Assassins Creed: Odyssey

RePack

NEED FOR SPEED™ PAYBACK

4 сезон

9 сезон

Бесстыжие 9 сезон

Все сериалы

все сериалы на PB.wtf

RePack

FAR CRY 5
  

Мой друг Дамер / My Friend Dahmer (Марк Мейерс) [2017, ужасы, драма, биография, BDRip 720p] MVO [Jaskier] pb.wtf

Мой друг Дамер через торрент pb.wtf

Размер: 4.55 GB | Добавлен: 2 года 3 мес. назад | Торрент скачан:30 раз
Скачать  

12-06-2018 16:18 Мой друг Дамер Скачать торрент  

Мой друг Дамер / My Friend Dahmer
««Based on the Acclaimed Graphic Novel»»

Год выпуска: 2017
Страна: США
Жанр: ужасы, драма, биография
Продолжительность: 01:47:28
Перевод: Профессиональный многоголосый [Jaskier]
Примечание: Присутствует голосовая реклама!
Режиссер: Марк Мейерс
В ролях:

Росс Линч (Jeff Dahmer), Захари Дэвис Браун (Freshman Boy), Lily Kozub (Freshman Girl), Винсент Картайзер (Dr. Matthews), Алекс Вулф (John «Derf» Backderf), Адам Кролофф (Mr. Burlman), Энн Хеч (Joyce Dahmer), Brady M.K. Dunn (Bossy), Michael Ryan Boehm (Shorty), Даллас Робертс (Lionel Dahmer), Liam Koeth (Dave Dahmer), Томми Нельсон (Neil)
Описание:
Старшеклассник Джеффри Дамер страдает от надвигающего развода родителей, отсутствия друзей и внимания. И в самом деле, кто захочет дружить со странным юношей, который подбирает на дороге мёртвых животных, растворяет их в кислоте и смотрит, что там у них внутри. Но однажды Джеффри решается на отчаянный шаг — привлечь внимание глупой выходкой в школе. К его удивлению это срабатывает, и теперь у парня есть друзья.
Фильм снимали в Огайо в том самом доме, где вырос серийный убийца Джеффри Дамер (1960-1994).
Дже́ффри Ла́йонел Да́мер - (англ. Jeffrey Lionel Dahmer; 21 мая 1960 — 28 ноября 1994) — американский серийный убийца, жертвами которого стали 17 юношей и мужчин в период между 1978 и 1991 годами. Все преступления, кроме одного, были совершены в Милуоки с 1987 по 1991 год. Трупы жертв он насиловал и употреблял в пищу. Суд признал Дамера вменяемым и приговорил его к пятнадцати пожизненным срокам. В 1994 году Дамер был убит сокамерником Кристофером Скарвером.

Рейтинг:
rating
Качество: BDRip 720p
Формат: MKV
Видео: AVC, 1280x534 (2.40:1), 4655 kbps, 23,976 fps, 0,284 bpp
Аудио №1: русский / AC3 / 5.1 / 48 kHz / 640 kbps / |MVO|
Аудио №2: английский / AC3 / 5.1 / 48 kHz / 640 kbps /
- Сэмпл с AVI, для оценки звука.
General
Unique ID : 191726992757786746478892144219682597604 (0x903D4690FECFF11567053B348B916AE4)
Complete name : F:\My.Friend.Dahmer.2017.BDRip.720p.Jaskier.mkv
Format : Matroska
Format version : Version 4 / Version 2
File size : 4.55 GiB
Duration : 1 h 47 min
Overall bit rate : 6 056 kb/s
Encoded date : UTC 2018-06-12 06:47:27
Writing application : mkvmerge v19.0.0 ('Brave Captain') 64-bit
Writing library : libebml v1.3.5 + libmatroska v1.4.8

Video
ID : 1
Format : AVC
Format/Info : Advanced Video Codec
Format profile : High@L4.1
Format settings, CABAC : Yes
Format settings, ReFrames : 12 frames
Codec ID : V_MPEG4/ISO/AVC
Duration : 1 h 47 min
Bit rate : 4 655 kb/s
Width : 1 280 pixels
Height : 534 pixels
Display aspect ratio : 2.40:1
Frame rate mode : Constant
Frame rate : 23.976 (24000/1001) FPS
Color space : YUV
Chroma subsampling : 4:2:0
Bit depth : 8 bits
Scan type : Progressive
Bits/(Pixel*Frame) : 0.284
Stream size : 3.49 GiB (77%)
Writing library : x264 core 155 r2901 7d0ff22
Encoding settings : cabac=1 / ref=12 / deblock=1:-3:-3 / analyse=0x3:0x133 / me=umh / subme=10 / psy=1 / psy_rd=1.05:0.00 / mixed_ref=1 / me_range=64 / chroma_me=1 / trellis=2 / 8x8dct=1 / cqm=0 / deadzone=21,11 / fast_pskip=0 / chroma_qp_offset=-2 / threads=12 / lookahead_threads=2 / sliced_threads=0 / nr=0 / decimate=0 / interlaced=0 / bluray_compat=0 / constrained_intra=0 / bframes=7 / b_pyramid=2 / b_adapt=2 / b_bias=0 / direct=3 / weightb=1 / open_gop=0 / weightp=2 / keyint=250 / keyint_min=23 / scenecut=40 / intra_refresh=0 / rc_lookahead=40 / rc=crf / mbtree=0 / crf=16.0 / qcomp=0.80 / qpmin=0 / qpmax=69 / qpstep=4 / vbv_maxrate=50000 / vbv_bufsize=62500 / crf_max=0.0 / nal_hrd=none / filler=0 / ip_ratio=1.30 / pb_ratio=1.20 / aq=3:0.70
Language : English
Default : Yes
Forced : No
Color range : Limited
Color primaries : BT.709
Transfer characteristics : BT.709
Matrix coefficients : BT.709

Audio #1
ID : 2
Format : AC-3
Format/Info : Audio Coding 3
Mode extension : CM (complete main)
Format settings, Endianness : Big
Codec ID : A_AC3
Duration : 1 h 47 min
Bit rate mode : Constant
Bit rate : 640 kb/s
Channel(s) : 6 channels
Channel positions : Front: L C R, Side: L R, LFE
Sampling rate : 48.0 kHz
Frame rate : 31.250 FPS (1536 spf)
Compression mode : Lossy
Stream size : 492 MiB (11%)
Title : Jaskier
Language : Russian
Default : Yes
Forced : No

Audio #2
ID : 3
Format : AC-3
Format/Info : Audio Coding 3
Mode extension : CM (complete main)
Format settings, Endianness : Big
Codec ID : A_AC3
Duration : 1 h 47 min
Bit rate mode : Constant
Bit rate : 640 kb/s
Channel(s) : 6 channels
Channel positions : Front: L C R, Side: L R, LFE
Sampling rate : 48.0 kHz
Frame rate : 31.250 FPS (1536 spf)
Compression mode : Lossy
Stream size : 492 MiB (11%)
Language : English
Default : No
Forced : No
pb.wtf



Скачать Мой друг Дамер через торрент http://i104.fastpic.ru/big/2018/0612/da/dc0b14f5757aecbe9ed63b7a942aefda.jpg Скачать фильм Мой друг Дамер через торрент бесплантно в хорошем качестве Описание: Старшеклассник Джеффри Дамер страдает от надвигающего развода родителей, отсутствия друзей и внимания. И в самом деле, кто ... 7 10 3
Торрент: Зарегистрирован [2018-06-12 16:18] · скачан: 30 раз
Статус: T временная
Размер: 4.55 GB
Как cкачать? Как скачать Мой друг Дамер через торрент | qTorrent

% Раздел Тема Автор DL S | L
T Фильмы (мультфильмы) cо спонсором показа (Новинки AVI/MKV) [ 1.46 GB ] Мой друг Дамер / My Friend Dahmer [2017 биография HDRip] [MVO] killermax2013 Скачать
1 | 0

28-11-2019 20:33  

Отключить всю рекламу на сайте

    Дорогой пользователь! Огромная просьба, поблагодарите релизера, оцените раздачу и оставьте свои комментарий, если Вы скачали Мой друг Дамер через торрент бесплатно! Внесите свою лепту в развитие PiratBit!
    Комментировать посты могут только пользователи прошедшие не сложную регистрацию
    Показать сообщения:    

    Мой друг Дамер через торрент
    Скачать бесплатно Мой друг Дамер
    Мой друг Дамер скачать торрент
    Мой друг Дамер смотреть онлайн
    Cкачать фильм Мой друг Дамер бесплатно
    Мой друг Дамер скачать торрент в хорошем качестве
    Мой друг Дамер смотреть онлайн бесплатно в хорошем качестве


    Вы не можете начинать темы
    Вы не можете отвечать на сообщения
    Вы не можете редактировать свои сообщения
    Вы не можете удалять свои сообщения
    Вы не можете голосовать в опросах
    Вы не можете прикреплять файлы к сообщениям
    Вы можете скачивать файлы