Всегда рабочее зеркало без VPN и Proxy просто перед .vidak.icu напиши любое слово или цифру, Пример http://cglo.vidak.icu

MVO

2 сезон

1 сезон

1

1 сезон

iTunes

2 сезон

13

1 сезон

Deluxe

pack

Рекомендуем

Пиратка

30

ВАЖНО

RePack

MK11

RePack

jed

RePack

fifa19

RePack

RDR2

RePack

NEED FOR SPEED™ PAYBACK

Кинопоиск HD

6 сезон

 Острые козырьки 6 сезон

Все сериалы

все сериалы на PB.wtf

RePack

FAR CRY 5

Anonymous, нам критически не хватает 5601 руб. на оплату серверов и переферии за Апрель, помоги нам пожалуйста, вся надежда только на тебя. В благодарность мы отключим тебе всю рекламу на сайте!

×
  
Magnet ссылка

Бердмэн / Birdman (Алехандро Гонсалес Иньярриту) [2014, драма, комедия, BDRip 1080p, HEVC (10Bit)] 2xAVO+DVO+DUB [Лицензия] pb.wtf

Бердмэн через торрент pb.wtf

Размер: 7.04 GB | Добавлен: 3 года 11 мес. назад | Торрент скачан:68 раз
Смотреть онлайн Бердмэн | Скачать    Ребята, помогите собрать деньги на оплату серверов!!!

13-06-2018 05:20 Бердмэн Скачать торрент  

Бердмэн / Birdman
Год выпуска: 2014
Страна: США, Канада
Жанр: драма, комедия
Продолжительность: 01:59:17
Перевод: Дублированный, Профессиональный (двухголосый закадровый), Авторский
Субтитры: Русские (Forced, Full, Full | не нормативная лексика), английские (Full)

Режиссер: Алехандро Гонсалес Иньярриту

rating

В ролях:
  • Майкл Китон, Эдвард Нортон, Эмма Стоун, Наоми Уоттс, Зак Галифианакис, Андреа Райзборо, Эми Райан, Линдси Дункан, Дэмиэн Янг, Джереми Шамос, Кенни Чин, Жамаль Гаррисон-Лоу

Описание:

В центре сюжета бывший актер, некогда сыгравший роль популярного супергероя Бёрдмэна, и теперь, переступая через свое эго, он решает принять участие в новой бродвейской постановке с целью вернуть себе былую славу, блеск и величие.

Качество: BDRip 1080p | 10Bit
Формат: MKV

Видео: x265, 10Bit, 1920х1040 (16:9), 23,976 fps, ~6 203 kb/s, 0.130 bit/pixe
Аудио#1: Русский (AC3, 6 ch, 448 Кбит/с) / Дублированный (BD CEE)
Аудио#2: Русский (AC3, 6 ch, 448 Кбит/с) / Профессиональный (двухголосый, закадровый) - Кубик в Кубе
Аудио#3: Русский (AC3, 6 ch, 448 Кбит/с) / Авторский одноголосый (Д.Есарев)
Аудио#4: Русский (AC3, 6 ch, 448 Кбит/с) / Авторский одноголосый (А.Матвеев)
Аудио#5: Английский (AC3, 6 ch, 448 Кбит/с)


• Релиз:
скриншот   скриншот   скриншот   скриншот   скриншот  

General
Unique ID : 272059965323308733731629751726265631355 (0xCCACD7E84F39FC7CF06BC178DB6C827B)
Complete name : N:Бёрдмэн (2014) 10Bit_Druidblack.mkv
Format : Matroska
Format version : Version 4 / Version 2
File size : 7.04 GiB
Duration : 1 h 59 min
Overall bit rate : 8 446 kb/s
Encoded date : UTC 2018-06-12 11:41:14
Writing application : mkvmerge v24.0.0 ('Beyond The Pale') 64-bit
Writing library : libebml v1.3.6 + libmatroska v1.4.9
Cover : Yes
Attachments : cover.jpg
Encoding Gui : Hybrid 2018.06.04.1

Video
ID : 1
Format : HEVC
Format/Info : High Efficiency Video Coding
Format profile : Main 10@L5.1@High
Codec ID : V_MPEGH/ISO/HEVC
Duration : 1 h 59 min
Bit rate : 6 203 kb/s
Width : 1 920 pixels
Height : 1 040 pixels
Display aspect ratio : 1.85:1
Frame rate mode : Constant
Frame rate : 23.976 (24000/1001) FPS
Color space : YUV
Chroma subsampling : 4:2:0 (Type 0)
Bit depth : 10 bits
Bits/(Pixel*Frame) : 0.130
Stream size : 5.17 GiB (73%)
Writing library : x265 2.8+12-9cde2c278464:[Windows][GCC 7.3.0][64 bit] 10bit
Encoding settings : cpuid=1049583 / frame-threads=4 / wpp / no-pmode / no-pme / no-psnr / no-ssim / log-level=2 / input-csp=1 / input-res=1920x1040 / interlace=0 / total-frames=0 / level-idc=51 / high-tier=1 / uhd-bd=0 / ref=5 / no-allow-non-conformance / no-repeat-headers / annexb / no-aud / no-hrd / info / hash=0 / no-temporal-layers / open-gop / min-keyint=23 / keyint=240 / gop-lookahead=0 / bframes=8 / b-adapt=2 / b-pyramid / bframe-bias=0 / rc-lookahead=40 / lookahead-slices=6 / scenecut=40 / radl=0 / no-intra-refresh / ctu=64 / min-cu-size=8 / rect / no-amp / max-tu-size=32 / tu-inter-depth=3 / tu-intra-depth=3 / limit-tu=4 / rdoq-level=2 / dynamic-rd=0.00 / no-ssim-rd / signhide / no-tskip / nr-intra=0 / nr-inter=0 / no-constrained-intra / no-strong-intra-smoothing / max-merge=3 / limit-refs=3 / limit-modes / me=3 / subme=7 / merange=57 / temporal-mvp / weightp / weightb / no-analyze-src-pics / deblock=-3:-3 / no-sao / no-sao-non-deblock / rd=4 / no-early-skip / rskip / no-fast-intra / no-tskip-fast / no-cu-lossless / no-b-intra / no-splitrd-skip / rdpenalty=0 / psy-rd=2.00 / psy-rdoq=1.00 / no-rd-refine / no-lossless / cbqpoffs=0 / crqpoffs=0 / rc=crf / crf=18.0 / qcomp=0.60 / qpstep=4 / stats-write=0 / stats-read=0 / vbv-maxrate=160000 / vbv-bufsize=160000 / vbv-init=0.9 / crf-max=0.0 / crf-min=0.0 / ipratio=1.40 / pbratio=1.30 / aq-mode=1 / aq-strength=1.00 / cutree / zone-count=1 / zones: / start-frame=161540 / end-frame=171601 / qp=35 / no-strict-cbr / qg-size=32 / no-rc-grain / qpmax=69 / qpmin=0 / no-const-vbv / sar=0 / overscan=0 / videoformat=5 / range=0 / colorprim=2 / transfer=2 / colormatrix=1 / chromaloc=1 / chromaloc-top=0 / chromaloc-bottom=0 / display-window=0 / max-cll=0,0 / min-luma=0 / max-luma=1023 / log2-max-poc-lsb=8 / vui-timing-info / vui-hrd-info / slices=1 / no-opt-qp-pps / no-opt-ref-list-length-pps / no-multi-pass-opt-rps / scenecut-bias=0.05 / no-opt-cu-delta-qp / no-aq-motion / no-hdr / no-hdr-opt / no-dhdr10-opt / no-idr-recovery-sei / analysis-reuse-level=5 / scale-factor=0 / refine-intra=0 / refine-inter=0 / refine-mv=0 / no-limit-sao / ctu-info=0 / no-lowpass-dct / refine-mv-type=0 / copy-pic=1 / max-ausize-factor=1.0 / no-dynamic-refine / no-single-sei
Default : Yes
Forced : Yes
Color range : Limited
Matrix coefficients : BT.709

Audio #1
ID : 6
Format : AC-3
Format/Info : Audio Coding 3
Codec ID : A_AC3
Duration : 1 h 59 min
Bit rate mode : Constant
Bit rate : 448 kb/s
Channel(s) : 6 channels
Channel positions : Front: L C R, Side: L R, LFE
Sampling rate : 48.0 kHz
Frame rate : 31.250 FPS (1536 SPF)
Bit depth : 16 bits
Compression mode : Lossy
Stream size : 382 MiB (5%)
Title : D | BD CEE
Language : Russian
Service kind : Complete Main
Default : Yes
Forced : No

Audio #2
ID : 7
Format : AC-3
Format/Info : Audio Coding 3
Codec ID : A_AC3
Duration : 1 h 59 min
Bit rate mode : Constant
Bit rate : 448 kb/s
Channel(s) : 6 channels
Channel positions : Front: L C R, Side: L R, LFE
Sampling rate : 48.0 kHz
Frame rate : 31.250 FPS (1536 SPF)
Bit depth : 16 bits
Compression mode : Lossy
Stream size : 382 MiB (5%)
Title : P2 | Кубик в Кубе
Language : Russian
Service kind : Complete Main
Default : No
Forced : No

Audio #3
ID : 8
Format : AC-3
Format/Info : Audio Coding 3
Codec ID : A_AC3
Duration : 1 h 59 min
Bit rate mode : Constant
Bit rate : 448 kb/s
Channel(s) : 6 channels
Channel positions : Front: L C R, Side: L R, LFE
Sampling rate : 48.0 kHz
Frame rate : 31.250 FPS (1536 SPF)
Bit depth : 16 bits
Compression mode : Lossy
Stream size : 382 MiB (5%)
Title : A | Д.Есарев
Language : Russian
Service kind : Complete Main
Default : No
Forced : No

Audio #4
ID : 9
Format : AC-3
Format/Info : Audio Coding 3
Codec ID : A_AC3
Duration : 1 h 59 min
Bit rate mode : Constant
Bit rate : 448 kb/s
Channel(s) : 6 channels
Channel positions : Front: L C R, Side: L R, LFE
Sampling rate : 48.0 kHz
Frame rate : 31.250 FPS (1536 SPF)
Bit depth : 16 bits
Compression mode : Lossy
Stream size : 382 MiB (5%)
Title : A | А.Матвеев
Language : Russian
Service kind : Complete Main
Default : No
Forced : No

Audio #5
ID : 10
Format : AC-3
Format/Info : Audio Coding 3
Codec ID : A_AC3
Duration : 1 h 59 min
Bit rate mode : Constant
Bit rate : 448 kb/s
Channel(s) : 6 channels
Channel positions : Front: L C R, Side: L R, LFE
Sampling rate : 48.0 kHz
Frame rate : 31.250 FPS (1536 SPF)
Bit depth : 16 bits
Compression mode : Lossy
Stream size : 382 MiB (5%)
Title : Original
Language : English
Service kind : Complete Main
Default : No
Forced : No

Text #1
ID : 2
Format : UTF-8
Codec ID : S_TEXT/UTF8
Codec ID/Info : UTF-8 Plain Text
Duration : 1 h 58 min
Bit rate : 0 b/s
Count of elements : 10
Stream size : 452 Bytes (0%)
Title : Forced
Language : Russian
Default : Yes
Forced : Yes

Text #2
ID : 3
Format : UTF-8
Codec ID : S_TEXT/UTF8
Codec ID/Info : UTF-8 Plain Text
Duration : 1 h 58 min
Bit rate : 95 b/s
Count of elements : 1521
Stream size : 82.4 KiB (0%)
Title : Full
Language : Russian
Default : No
Forced : No

Text #3
ID : 4
Format : UTF-8
Codec ID : S_TEXT/UTF8
Codec ID/Info : UTF-8 Plain Text
Duration : 1 h 50 min
Bit rate : 107 b/s
Count of elements : 1909
Stream size : 87.0 KiB (0%)
Title : Full | не нормативная лексика
Language : Russian
Default : No
Forced : No

Text #4
ID : 5
Format : UTF-8
Codec ID : S_TEXT/UTF8
Codec ID/Info : UTF-8 Plain Text
Duration : 1 h 49 min
Bit rate : 70 b/s
Count of elements : 1787
Stream size : 56.8 KiB (0%)
Title : Full
Language : English
Default : No
Forced : No

Menu
00:00:00.000 : en:Chapter 1
00:03:29.083 : en:Chapter 2
00:07:33.828 : en:Chapter 3
00:09:08.506 : en:Chapter 4
00:12:39.383 : en:Chapter 5
00:16:53.429 : en:Chapter 6
00:19:07.146 : en:Chapter 7
00:20:22.095 : en:Chapter 8
00:25:21.186 : en:Chapter 9
00:31:45.028 : en:Chapter 10
00:36:09.834 : en:Chapter 11
00:37:12.772 : en:Chapter 12
00:42:09.443 : en:Chapter 13
00:48:49.801 : en:Chapter 14
00:53:30.540 : en:Chapter 15
00:58:31.341 : en:Chapter 16
01:03:17.084 : en:Chapter 17
01:08:29.146 : en:Chapter 18
01:12:42.566 : en:Chapter 19
01:17:01.450 : en:Chapter 20
01:20:45.090 : en:Chapter 21
01:25:13.983 : en:Chapter 22
01:28:04.946 : en:Chapter 23
01:33:22.471 : en:Chapter 24
01:39:14.949 : en:Chapter 25
01:43:10.726 : en:Chapter 26
01:46:43.855 : en:Chapter 27
01:52:16.855 : en:Chapter 28
01:59:16.941 : en:Chapter 29

pb.wtf



Скачать Бердмэн через торрент http://i105.fastpic.ru/big/2018/0612/f7/f1f8c6cc1a9347e825bce80ae8570cf7.jpg Скачать, смотреть онлайн Бердмэн бесплантно в хорошем качестве Описание: В центре сюжета бывший актер, некогда сыгравший роль популярного супергероя Бёрдмэна, и теперь, переступая через свое эго, он ... 10 10 3
Торрент: Зарегистрирован [2018-06-13 05:20] · скачан: 68 раз
Статус: √ проверено
Размер: 7.04 GB
Как cкачать? Как скачать Бердмэн через торрент | UTorrent

% Раздел Тема Автор DL S | L
Фильмы [HD 720p, 1080p] (Хороший звук DUB, MVO) [ 21.3 GB ] Бёрдмэн / Birdman: Or [2014 BDRip 1080p] Dub + DVO + 3xAVO + MVO + Original + Sub Seedtank Скачать
1 | 0

28-11-2019 20:33  

Отключить всю рекламу на сайте

    Дорогой пользователь! Огромная просьба, поблагодарите релизера, оцените раздачу и оставьте свои комментарий, если Вы скачали Бердмэн через торрент бесплатно!
    Комментировать посты могут только пользователи прошедшие не сложную регистрацию
    Показать сообщения:    

    Бердмэн через торрент
    Скачать бесплатно Бердмэн
    Бердмэн скачать торрент
    Бердмэн смотреть онлайн
    Cкачать фильм Бердмэн бесплатно
    Бердмэн скачать торрент в хорошем качестве
    Бердмэн смотреть онлайн бесплатно в хорошем качестве


    Вы не можете начинать темы
    Вы не можете отвечать на сообщения
    Вы не можете редактировать свои сообщения
    Вы не можете удалять свои сообщения
    Вы не можете голосовать в опросах
    Вы не можете прикреплять файлы к сообщениям
    Вы можете скачивать файлы