Ссылка на приватное зеркало нашего сайта всего за 1$. Внимание количество ограничено!!!

2 сезон

iTunes

1 сезон

1

iTunes

iTunes

iTunes

1 сезон

RePack

30

ИГРА 18+

pack

ВАЖНО

!!Акция!!

Alien_RageХит недели

RePack

MK11
pack

Забери бонус

RePack

jed

!!Акция!!

Alien_Rage

RePack

fifa19

RePack

Assassins Creed: Odyssey

RePack

NEED FOR SPEED™ PAYBACK

4 сезон

9 сезон

Бесстыжие 9 сезон

Все сериалы

все сериалы на PB.wtf

RePack

FAR CRY 5
  

Клуб обманутых жен / Серии: 1-2 из 2 (Елена Яковлева (IV) [2018, Криминальный фильм, мелодрама, WEB-DLRip] pb.wtf

Клуб обманутых жен через торрент pb.wtf

Размер: 2.74 GB | Добавлен: 2 года 4 мес. назад | Торрент скачан:123 раза
Скачать  

13-06-2018 05:33 Клуб обманутых жен Скачать торрент  

Клуб обманутых женГод выпуска: 2018
Страна: Россия
Жанр: Криминальный фильм, мелодрама
Продолжительность: ~ 01:30:00
Субтитры: отсутствуют

Режиссер: Елена Яковлева (IV)



В ролях:

Любава Грешнова, Елена Вожакина, Светлана Колпакова, Роман Полянский, Сергей Рудзевич, Павел Крайнов, Александр Давыдов (V), Алёна Коломина, Максим Житник, Лиза Измайлова

Описание:

Оля, Иза и Даша пережили предательство своих мужей. Личные обстоятельства привели их на тренинг по «преодолению кризиса в личной жизни». Но, поняв, что тренинг им не поможет, они решают взять дело по «спасению утопающих» в собственные руки! Олю, Изу и Дашу ничего не связывало в прошлой жизни. Они понимают, что могут помочь друг другу решить все свои проблемы, не вызвав подозрения у мужей и знакомых. Обманутые жены решают воспользоваться классическим приемом детективного жанра — «убийство по обмену». Операция «Клуб обманутых жен» начинается!..

Качество: WEB-DLRip
Формат: AVI

Видео: XviD, 1950 Кбит/с, 720x400
Аудио: AC3, 2 ch, 192 Кбит/с
скриншот   скриншот   скриншот   скриншот  

Общее
Полное имя : E:\Клуб обманутых жен (2018).WEB-DLRip.Files-x\1.Клуб обманутых жен (2018).WEB-DLRip.Files-x.avi
Формат : AVI
Формат/Информация : Audio Video Interleave
Размер файла : 1,37 Гбайт
Продолжительность : 1 ч. 31 м.
Общий поток : 2152 Кбит/сек
Программа кодирования : VirtualDubMod 1.5.10.3 | www.virtualdub-fr.org || (build 2550/release)
Библиотека кодирования : VirtualDubMod build 2550/release

Видео
Идентификатор : 0
Формат : MPEG-4 Visual
Профиль формата : Advanced Simple@L5
Настройки формата : BVOP1 / Custom Matrix
Параметр BVOP формата : 1
Параметр QPel формата : Нет
Параметр GMC формата : Без точки перехода
Параметр матрицы формата : Выборочная
Идентификатор кодека : XVID
Идентификатор кодека/Подсказка : XviD
Продолжительность : 1 ч. 31 м.
Битрейт : 1950 Кбит/сек
Ширина : 720 пикселей
Высота : 400 пикселей
Соотношение сторон : 16:9
Частота кадров : 25,000 кадров/сек
Цветовое пространство : YUV
Субдискретизация насыщенности : 4:2:0
Битовая глубина : 8 бит
Тип развёртки : Прогрессивная
Метод сжатия : С потерями
Бит/(Пиксели*Кадры) : 0.271
Размер потока : 1,24 Гбайт (91%)
Библиотека кодирования : XviD 73

Аудио
Идентификатор : 1
Формат : AC-3
Формат/Информация : Audio Coding 3
Идентификатор кодека : 2000
Продолжительность : 1 ч. 31 м.
Вид битрейта : Постоянный
Битрейт : 192 Кбит/сек
Каналы : 2 канала
Расположение каналов : Front: L R
Частота : 48,0 КГц
Частота кадров : 31,250 кадров/сек (1536 SPF)
Битовая глубина : 16 бит
Метод сжатия : С потерями
Размер потока : 125 Мбайт (9%)
Выравнивание : Разделение по промежуткам
Продолжительность промежутка : 40 мс. (1,00 видеокадр)
Время предзагрузки промежутка : 500 мс.
ServiceKind/String : Complete Main

pb.wtf



Скачать Клуб обманутых жен через торрент http://i105.fastpic.ru/big/2018/0613/f8/4d1c3f9e8ab7e096982c55b0660daef8.jpg Скачать фильм Клуб обманутых жен через торрент бесплантно в хорошем качестве Описание: Оля, Иза и Даша пережили предательство своих мужей. Личные обстоятельства привели их на тренинг по «преодолению кризиса в личной ... 8.3 10 4
Торрент: Зарегистрирован [2018-06-13 05:33] · скачан: 123 раз
Статус: √ проверено
Размер: 2.74 GB
Как cкачать? Как скачать Клуб обманутых жен через торрент | qTorrent

28-11-2019 20:33  

Отключить всю рекламу на сайте

    Дорогой пользователь! Огромная просьба, поблагодарите релизера, оцените раздачу и оставьте свои комментарий, если Вы скачали Клуб обманутых жен через торрент бесплатно! Внесите свою лепту в развитие PiratBit!
    Комментировать посты могут только пользователи прошедшие не сложную регистрацию
    Показать сообщения:    

    Клуб обманутых жен через торрент
    Скачать бесплатно Клуб обманутых жен
    Клуб обманутых жен скачать торрент
    Клуб обманутых жен смотреть онлайн
    Cкачать фильм Клуб обманутых жен бесплатно
    Клуб обманутых жен скачать торрент в хорошем качестве
    Клуб обманутых жен смотреть онлайн бесплатно в хорошем качестве


    Вы не можете начинать темы
    Вы не можете отвечать на сообщения
    Вы не можете редактировать свои сообщения
    Вы не можете удалять свои сообщения
    Вы не можете голосовать в опросах
    Вы не можете прикреплять файлы к сообщениям
    Вы можете скачивать файлы