Ссылка на приватное зеркало всего за 1$. Внимание количество ограничено!!!

iTunes

iTunes

iTunes

1

iTunes

iTunes

iTunes

WEBRip

iTunes

30
pack

$ от Little Big

ВАЖНО

!!Акция!!

Alien_RageХит недели

RePack

Resident Evil 21

ИГРА 18+

pack

RePack

jed

!!Акция!!

Alien_Rage

RePack

fifa19

RePack

Assassins Creed: Odyssey

RePack

NEED FOR SPEED™ PAYBACK

4 сезон

9 сезон

Бесстыжие 9 сезон

Все сериалы

все сериалы на PB.wtf

RePack

FAR CRY 5
  

Апокалипсис начинается / Apocalypse Rising (Ричард Лоури) [2018, Фантастика, BDRip 720p] MVO ["Синема УС"] pb.wtf

Апокалипсис начинается через торрент pb.wtf

Размер: 3.97 GB | Добавлен: 2 года 1 мес. назад | Торрент скачан:156 раз
Скачать  

13-06-2018 07:10 Апокалипсис начинается Скачать торрент  

Апокалипсис начинается / Apocalypse RisingГод выпуска: 2018
Страна: США
Жанр: Фантастика
Продолжительность: 01:25:24
Перевод: Любительский (многоголосый) | "Синема УС"
Субтитры: отсутствуют

Режиссер: Ричард Лоури

rating

В ролях:

Джоанна Рэй, Хантер Алексис паркер, Тед Фергюсон, Мейсон Паркер, Джастин Лебрун, Шиа Луна, Джефф Кэйпертон, Шейн Семплес, Деннис Марин, Дэвид Намминга

Описание:

Религия, зомби и пришельцы - всё в одном флаконе. Пришельцы, ведомые рукой единого Господа, прилетают на Землю, дабы предупредить и спасти человечество от катастрофы, которая постигла ранее их собственную планету - нашествия живых мертвецов! И поможет им в этом никто иной как сам Иисус Христос через пророка Мию, также являющейся одной из пришельцев. Теперь им предстоить обьединить силы с человечеством и еще раз сразиться с ужасом, уничтожившим их мир!

Качество: BDRip 720p
Формат: MKV

Видео: h.264, 6209 kb/s, 1280x534
Аудио#1: Русский (AC3, 2 ch, 448 Кбит/с)
скриншот  скриншот  скриншот  

Общее
Уникальный идентификатор : 201783101970293194118937013406544743510 (0x97CE0307A84D2B7ABF087ECE0138CC56)
Полное имя : E:\торреннты\Apocalypse.Rising.2018.P.BDRip.72Op_KOSHARA.mkv
Формат : Matroska
Версия формата : Version 2
Размер файла : 3,97 Гбайт
Продолжительность : 1 ч. 25 м.
Режим общего битрейта : Переменный
Общий поток : 6659 Кбит/сек
Дата кодирования : UTC 2018-06-12 19:01:26
Программа кодирования : mkvmerge v8.3.0 ('Over the Horizon') 64bit
Библиотека кодирования : libebml v1.3.1 + libmatroska v1.4.2

Видео
Идентификатор : 1
Формат : AVC
Формат/Информация : Advanced Video Codec
Профиль формата : High@L4.1
Настройки формата : CABAC / 4 Ref Frames
Параметр CABAC формата : Да
Параметр RefFrames формата : 4 кадра
Идентификатор кодека : V_MPEG4/ISO/AVC
Продолжительность : 1 ч. 25 м.
Вид битрейта : Переменный
Битрейт : 6209 Кбит/сек
Максимальный битрейт : 6900 Кбит/сек
Ширина : 1280 пикселей
Высота : 534 пикселя
Соотношение сторон : 2,40:1
Режим частоты кадров : Постоянный
Частота кадров : 23,976 (24000/1001) кадра/сек
Стандарт вещания : Component
Цветовое пространство : YUV
Субдискретизация насыщенности : 4:2:0
Битовая глубина : 8 бит
Тип развёртки : Прогрессивная
Бит/(Пиксели*Кадры) : 0.371
Размер потока : 3,63 Гбайт (91%)
Default : Да
Forced : Нет
Цветовой диапазон : Limited
Основные цвета : BT.709
Характеристики трансфера : BT.709
Коэффициенты матрицы : BT.709

Аудио
Идентификатор : 2
Формат : AC-3
Формат/Информация : Audio Coding 3
Идентификатор кодека : A_AC3
Продолжительность : 1 ч. 25 м.
Вид битрейта : Постоянный
Битрейт : 448 Кбит/сек
Каналы : 2 канала
Расположение каналов : Front: L R
Частота : 48,0 КГц
Частота кадров : 31,250 кадров/сек (1536 SPF)
Битовая глубина : 16 бит
Метод сжатия : С потерями
Размер потока : 274 Мбайт (7%)
ServiceKind/String : Complete Main
Default : Да
Forced : Нет

pb.wtf



Скачать Апокалипсис начинается через торрент http://img12.lostpic.net/2018/06/13/d9ed523bc7a5de66346f0655abc6c749.jpg Скачать фильм Апокалипсис начинается через торрент бесплантно в хорошем качестве Описание: Религия, зомби и пришельцы - всё в одном флаконе. Пришельцы, ведомые рукой единого Господа, прилетают на Землю, дабы предупредить ... 8.5 10 6
Торрент: Зарегистрирован [2018-06-13 07:10] · скачан: 156 раз
Статус: # сомнительно
Размер: 3.97 GB
Как cкачать? Как скачать Апокалипсис начинается через торрент | qTorrent

% Раздел Тема Автор DL S | L
T Фильмы 2019-2020 (Звук TS, Cam, VO, DVO) [ 1.46 GB ] Апокалипсис начинается / Apocalypse Rising [2018 BDRip] DVO [HiWay Grope] -Lexx- Скачать
1 | 0
T Фильмы (мультфильмы) cо спонсором показа (Новинки AVI/MKV) [ 1.37 GB ] Апокалипсис начинается / Apocalypse Rising [2018 HDRip] MVO ["Синема УС"] bober100 Скачать
1 | 0

28-11-2019 20:33  

Отключить всю рекламу на сайте

13-06-2018 12:23 Апокалипсис начинается Скачать торрент  

да походу шпек нормально претpb.wtf



13-06-2018 13:13 Апокалипсис начинается Скачать торрент  

Что курят авторы этого треша?pb.wtf



13-06-2018 16:06 Апокалипсис начинается Скачать торрент  

Мало того что шняга на каждом шагу, так они еще и за ересь принялись. Действительно конец света начинается!pb.wtf



14-06-2018 11:07 Апокалипсис начинается Скачать торрент  

А что вы еще хотели от дебилов выросших и читающих только комиксы?
Судя по тем процессам которые происходят у них в обществе они скоро сами себе аппокалипсис устроят при чем тихо где то там за большой лужей...pb.wtf



    Дорогой пользователь! Огромная просьба, поблагодарите релизера, оцените раздачу и оставьте свои комментарий, если Вы скачали Апокалипсис начинается через торрент бесплатно! Внесите свою лепту в развитие PiratBit!
    Комментировать посты могут только пользователи прошедшие не сложную регистрацию
    Показать сообщения:    

    Апокалипсис начинается через торрент
    Скачать бесплатно Апокалипсис начинается
    Апокалипсис начинается скачать торрент
    Апокалипсис начинается смотреть онлайн
    Cкачать фильм Апокалипсис начинается бесплатно
    Апокалипсис начинается скачать торрент в хорошем качестве
    Апокалипсис начинается смотреть онлайн бесплатно в хорошем качестве


    Вы не можете начинать темы
    Вы не можете отвечать на сообщения
    Вы не можете редактировать свои сообщения
    Вы не можете удалять свои сообщения
    Вы не можете голосовать в опросах
    Вы не можете прикреплять файлы к сообщениям
    Вы можете скачивать файлы