Ссылка на приватное зеркало всего за 1$. Внимание количество ограничено!!!

OK

1+1

iTunes

мы

OK

1

WEB-DLRip

Джокер

Пифагор

Ведьмак / The Witcher сериал

iTunes

ПШазам

ОК

Оно 2

iTunes

30
pack

Вам бонус

ВАЖНО

!!Акция!!

Alien_RageХит недели

RePack

Resident Evil 21

ИГРА 18+

pack

RePack

jed

RePack

fifa19

RePack

Assassins Creed: Odyssey

RePack

NEED FOR SPEED™ PAYBACK

4 сезон

9 сезон

Бесстыжие 9 сезон

Все сериалы

все сериалы на PB.wtf

RePack

FAR CRY 5
  

Похитители тел / Bodysnatch (Луи Бенджамин Дель Гуерсио) [2018, фантастика, триллер, BDRip 720p] MVO ["Синема УС"] pb.wtf

Похитители тел через торрент pb.wtf

Размер: 3.79 GB | Добавлен: 1 год 7 мес. назад | Торрент скачан:117 раз
Скачать  

13-06-2018 07:54 Похитители тел Скачать торрент  

Похитители тел / BodysnatchГод выпуска: 2018
Страна: США
Жанр: фантастика, триллер
Продолжительность: 01:23:06
Перевод: Любительский (многоголосый) | "Синема УС"
Субтитры: отсутствуют

Режиссер: Луи Бенджамин Дель Гуерсио

rating

В ролях:

Сара Дэвенпорт, Риз Мишлер, Гиллиан Шур, Пол Вулфолк, Джоэл Вирсема, Алиша Бернхардт, Говард Монро, Лоуренс Диллард, Фил Санчес, Памела Ли

Описание:

Недавний выпускник школы Стив возвращается на родину, чтобы восстановить связь со своим другом-конспирологом Джереми и Эммой - его давно позабытой первой любовью. Во время случайного патруля с веселым полицейским Маркусом они в буквальном смысле сталкиваются с неземной проблемой. На мир нападает доселе неизвестная раса пришельцев - жанлингов, которые пытаясь сойти за своих, угонаяют людские тела. И хотя их миссия до конца не ясна, их намерения очевидны. Не оставить после себя ни одного свидетеля. В связи с этим на плечи Стива, Джереми и Эммы падает архиважная задача - спасти человечество, уничтожив захватчиков.

Качество: BDRip 720p
Формат: MKV

Видео: h.264, 6 078 kb/s, 1280x534
Аудио#1: Русский (AC3, 2 ch, 448 Кбит/с)
скриншот  скриншот  скриншот  

Общее
Уникальный идентификатор : 233709655436152991111345357405597301669 (0xAFD2D7A58A4210C197579507E2E97BA5)
Полное имя : E:\торреннты\Bodysnatch.2018.P.BDRip.72Op_KOSHARA.mkv
Формат : Matroska
Версия формата : Version 2
Размер файла : 3,79 Гбайт
Продолжительность : 1 ч. 23 м.
Режим общего битрейта : Переменный
Общий поток : 6528 Кбит/сек
Дата кодирования : UTC 2018-06-12 19:04:28
Программа кодирования : mkvmerge v8.3.0 ('Over the Horizon') 64bit
Библиотека кодирования : libebml v1.3.1 + libmatroska v1.4.2

Видео
Идентификатор : 1
Формат : AVC
Формат/Информация : Advanced Video Codec
Профиль формата : High@L4.1
Настройки формата : CABAC / 4 Ref Frames
Параметр CABAC формата : Да
Параметр RefFrames формата : 4 кадра
Идентификатор кодека : V_MPEG4/ISO/AVC
Продолжительность : 1 ч. 23 м.
Вид битрейта : Переменный
Битрейт : 6078 Кбит/сек
Максимальный битрейт : 6900 Кбит/сек
Ширина : 1280 пикселей
Высота : 534 пикселя
Соотношение сторон : 2,40:1
Режим частоты кадров : Постоянный
Частота кадров : 23,976 (24000/1001) кадра/сек
Стандарт вещания : Component
Цветовое пространство : YUV
Субдискретизация насыщенности : 4:2:0
Битовая глубина : 8 бит
Тип развёртки : Прогрессивная
Бит/(Пиксели*Кадры) : 0.363
Размер потока : 3,45 Гбайт (91%)
Default : Да
Forced : Нет
Цветовой диапазон : Limited
Основные цвета : BT.709
Характеристики трансфера : BT.709
Коэффициенты матрицы : BT.709

Аудио
Идентификатор : 2
Формат : AC-3
Формат/Информация : Audio Coding 3
Идентификатор кодека : A_AC3
Продолжительность : 1 ч. 23 м.
Вид битрейта : Постоянный
Битрейт : 448 Кбит/сек
Каналы : 2 канала
Расположение каналов : Front: L R
Частота : 48,0 КГц
Частота кадров : 31,250 кадров/сек (1536 SPF)
Битовая глубина : 16 бит
Метод сжатия : С потерями
Размер потока : 266 Мбайт (7%)
ServiceKind/String : Complete Main
Default : Да
Forced : Нет

pb.wtf



Скачать Похитители тел через торрент http://img12.lostpic.net/2018/06/13/2027d5c25f466c9f15750c2673a40f89.jpg Скачать фильм Похитители тел через торрент бесплантно в хорошем качестве Описание: Недавний выпускник школы Стив возвращается на родину, чтобы восстановить связь со своим другом-конспирологом Джереми и Эммой - ... 6.4 10 5
Торрент: Зарегистрирован [2018-06-13 07:54] · скачан: 117 раз
Статус: # сомнительно
Размер: 3.79 GB
Как cкачать? Как скачать Похитители тел через торрент | qTorrent

% Раздел Тема Автор DL S | L
T Фильмы (мультфильмы) cо спонсором показа (Новинки AVI/MKV) [ 1.37 GB ] Похитители тел / Bodysnatch [2018 HDRip] MVO ["Синема УС"] bober100 Скачать
1 | 0

28-11-2019 20:33  

Отключить всю рекламу на сайте

    Дорогой пользователь! Огромная просьба, поблагодарите релизера, оцените раздачу и оставьте свои комментарий, если Вы скачали Похитители тел через торрент бесплатно! Внесите свою лепту в развитие PiratBit!
    Комментировать посты могут только пользователи прошедшие не сложную регистрацию
    Показать сообщения:    

    Похитители тел через торрент
    Скачать бесплатно Похитители тел
    Похитители тел скачать торрент
    Похитители тел смотреть онлайн
    Cкачать фильм Похитители тел бесплатно
    Похитители тел скачать торрент в хорошем качестве
    Похитители тел смотреть онлайн бесплатно в хорошем качестве


    Вы не можете начинать темы
    Вы не можете отвечать на сообщения
    Вы не можете редактировать свои сообщения
    Вы не можете удалять свои сообщения
    Вы не можете голосовать в опросах
    Вы не можете прикреплять файлы к сообщениям
    Вы можете скачивать файлы