Ссылка на приватное зеркало нашего сайта всего за 1$. Внимание количество ограничено!!!

2 сезон

iTunes

1 сезон

1

2 сезон

2 сезон

iTunes

1 сезон

RePack

30

Новинка

ВАЖНО

ИГРА 18+

pack

RePack

MK11
pack

Забери бонус

RePack

jed

!!Акция!!

Alien_Rage

RePack

fifa19

RePack

Assassins Creed: Odyssey

RePack

NEED FOR SPEED™ PAYBACK

4 сезон

9 сезон

Бесстыжие 9 сезон

Все сериалы

все сериалы на PB.wtf

RePack

FAR CRY 5
  

Ночные игры / Game Night (Джон Фрэнсис Дейли, Джонатан М. Голдштейн) [2018, триллер, комедия, криминал, детектив, BD Remux 1080p] DUB [Лицензия] pb.wtf

Ночные игры через торрент pb.wtf

Размер: 23.83 GB | Добавлен: 2 года 5 мес. назад | Торрент скачан:67 раз
Скачать  

14-06-2018 04:06 Ночные игры Скачать торрент  

Ночные игры / Game Night
Год выпуска: 2018
Страна: США
Жанр: триллер, комедия, криминал, детектив
Продолжительность: 01:40:05
Перевод: Дублированный | Лицензия
Субтитры: Русские (forced, full), английские

Режиссер: Джон Фрэнсис Дейли, Джонатан М. Голдштейн

rating

В ролях:

Джейсон Бейтман, Рэйчел МакАдамс, Кайл Чандлер, Шэрон Хорган, Билли Магнуссен, Ламорн Моррис, Кайли Банбери, Джесси Племонс, Майкл С. Холл, Дэнни Хьюстон

Описание:

История Макса и Энни, которые вместе с другими парами каждую неделю устраивают так называемые «ночные игры». И вот однажды харизматичный брат Макса Брукс организовывает вечер по разгадыванию «убийственного» квеста с «ряжеными» головорезами и агентами ФБР. Получается, похищение Брукса в тот вечер - это розыгрыш... или нет?

В итоге, по мере того, как шестеро мега-азартных игроков пытаются решить заготовленные головоломки и выиграть, они начинают осознавать, что и «квест», и Брукс - совсем не такие, как кажутся. В течение всей этой суматошной ночи друзья не раз прыгают выше головы, пытаясь выпутаться из очередной передряги. В игре нет правил, за нее не начисляются очки, а игроки понятия не имеют, кому противостоят. Эта ночь может стать самой зажигательной в их жизни... или последней.

Качество: BD Remux 1080p
Формат: MKV

Видео: MPEG-4 AVC, 1920x1080, 29.8 Mbit/s, 23.976 fps
Аудио#1: 48 kHz, AC3, 5.1, 640 Kbps | Лицензия | RUS |
Аудио#2: 48 kHz, DTS-HD MA, 5.1, 3596 Kbps | Оригинал | ENG |
скриншот   скриншот   скриншот   скриншот   скриншот  

General
Unique ID : 72899412839253891739642674936695901543 (0x36D7EA8CD6DA15A6ADB599CEAD5A4D67)
Complete name : D:Video111Game.Night.2018.LIc.BDREMUX.1080p.ExKinoRay.mkv
Format : Matroska
Format version : Version 4 / Version 2
File size : 23.8 GiB
Duration : 1 h 40 min
Overall bit rate mode : Variable
Overall bit rate : 34.1 Mb/s
Movie name : Game Night 2018 from ExKinoRay
Encoded date : UTC 2018-06-13 19:50:50
Writing application : mkvmerge v23.0.0 ('The Bride Said No') 64-bit
Writing library : libebml v1.3.6 + libmatroska v1.4.9

Video
ID : 1
Format : AVC
Format/Info : Advanced Video Codec
Format profile : High@L4.1
Format settings : CABAC / 4 Ref Frames
Format settings, CABAC : Yes
Format settings, ReFrames : 4 frames
Codec ID : V_MPEG4/ISO/AVC
Duration : 1 h 40 min
Bit rate mode : Variable
Bit rate : 29.8 Mb/s
Maximum bit rate : 34.0 Mb/s
Width : 1 920 pixels
Height : 1 080 pixels
Display aspect ratio : 16:9
Frame rate mode : Constant
Frame rate : 23.976 (24000/1001) FPS
Color space : YUV
Chroma subsampling : 4:2:0
Bit depth : 8 bits
Scan type : Progressive
Bits/(Pixel*Frame) : 0.600
Stream size : 20.9 GiB (88%)
Language : English
Default : Yes
Forced : No

Audio #1
ID : 2
Format : AC-3
Format/Info : Audio Coding 3
Codec ID : A_AC3
Duration : 1 h 40 min
Bit rate mode : Constant
Bit rate : 640 kb/s
Channel(s) : 6 channels
Channel positions : Front: L C R, Side: L R, LFE
Sampling rate : 48.0 kHz
Frame rate : 31.250 FPS (1536 SPF)
Bit depth : 16 bits
Compression mode : Lossy
Stream size : 458 MiB (2%)
Title : Dub [License]
Language : Russian
Service kind : Complete Main
Default : Yes
Forced : Yes

Audio #2
ID : 3
Format : DTS
Format/Info : Digital Theater Systems
Format profile : MA / Core
Codec ID : A_DTS
Duration : 1 h 40 min
Bit rate mode : Variable / Constant
Bit rate : 3 596 kb/s / 1 509 kb/s
Channel(s) : 6 channels
Channel positions : Front: L C R, Side: L R, LFE
Sampling rate : 48.0 kHz
Frame rate : 93.750 FPS (512 SPF)
Bit depth : 24 bits
Compression mode : Lossless / Lossy
Stream size : 2.51 GiB (11%)
Title : Original
Language : English
Default : No
Forced : No

Text #1
ID : 4
Format : UTF-8
Codec ID : S_TEXT/UTF8
Codec ID/Info : UTF-8 Plain Text
Duration : 1 h 39 min
Bit rate : 4 b/s
Count of elements : 61
Stream size : 3.31 KiB (0%)
Title : Forced
Language : Russian
Default : Yes
Forced : Yes

Text #2
ID : 5
Format : UTF-8
Codec ID : S_TEXT/UTF8
Codec ID/Info : UTF-8 Plain Text
Duration : 1 h 39 min
Bit rate : 135 b/s
Count of elements : 2086
Stream size : 98.7 KiB (0%)
Title : Full
Language : Russian
Default : No
Forced : No

Text #3
ID : 6
Format : UTF-8
Codec ID : S_TEXT/UTF8
Codec ID/Info : UTF-8 Plain Text
Duration : 1 h 39 min
Bit rate : 92 b/s
Count of elements : 2245
Stream size : 67.3 KiB (0%)
Title : Full
Language : English
Default : No
Forced : No

Text #4
ID : 7
Format : UTF-8
Codec ID : S_TEXT/UTF8
Codec ID/Info : UTF-8 Plain Text
Duration : 1 h 39 min
Bit rate : 99 b/s
Count of elements : 2205
Stream size : 72.3 KiB (0%)
Title : SDH
Language : English
Default : No
Forced : No

Menu
00:00:00.000 : en:00:00:00.000
00:10:35.093 : en:00:10:35.093
00:18:37.116 : en:00:18:37.116
00:32:24.860 : en:00:32:24.860
00:42:40.308 : en:00:42:40.308
00:52:27.353 : en:00:52:27.353
01:02:01.301 : en:01:02:01.301
01:11:50.932 : en:01:11:50.932
01:22:36.743 : en:01:22:36.743
01:32:54.903 : en:01:32:54.903

pb.wtf



Скачать Ночные игры через торрент http://pic1.kartinco.top/images/11/jh4xk.jpg Скачать фильм Ночные игры через торрент бесплантно в хорошем качестве Описание: История Макса и Энни, которые вместе с другими парами каждую неделю устраивают так называемые «ночные игры». И вот однажды ... 10 10 3
Info! Золотая раздача, скачанное не засчитывается.
Торрент: Зарегистрирован [2018-06-14 04:06] · скачан: 67 раз
Статус: √ проверено
Размер: 23.83 GB
Как cкачать? Как скачать Ночные игры через торрент | qTorrent

% Раздел Тема Автор DL S | L
Фильмы с авторской озвучкой [ 1.46 GB ] Ночные игры / Game Night [2018 BDRip] AVO [Есарев] - ExKinoRay Enigma2010 Скачать
2 | 0
Фильмы 2018 [DVDrip, WEB-DLRip, HDrip] (DUB, MVO) [ 2.06 GB ] Ночные игры / Game Night [2018 BDRip] - [] - ExKinoRay Enigma2010 Скачать
5 | 1
Фильмы 2018 [DVDrip, WEB-DLRip, HDrip] (DUB, MVO) [ 709 MB ] Ночные игры / Game Night [2018 HDRip "BD EUR"] coc900 Скачать
1 | 0
Фильмы [HD 720p, 1080p] (Хороший звук DUB, MVO) [ 6.37 GB ] Ночные игры / Game Night [2018 BDRip 720p] DUB [] bober100 Скачать
1 | 0
Фильмы 2018 [DVDrip, WEB-DLRip, HDrip] (DUB, MVO) [ 2.03 GB ] Ночные игры / Game Night [2018 BDRip-AVC] DUB [] bober100 Скачать
1 | 0
Фильмы [HD 720p, 1080p] (Хороший звук DUB, MVO) [ 11.63 GB ] Ночные игры / Game Night [2018 BDRip 1080p] DUB [] bober100 Скачать
1 | 0
Фильмы 2018 [DVDrip, WEB-DLRip, HDrip] (DUB, MVO) [ 2.18 GB ] Ночные игры / Game Night [2018 WEB-DLRip] killermax2013 Скачать
2 | 0

28-11-2019 20:33  

Отключить всю рекламу на сайте

    Дорогой пользователь! Огромная просьба, поблагодарите релизера, оцените раздачу и оставьте свои комментарий, если Вы скачали Ночные игры через торрент бесплатно! Внесите свою лепту в развитие PiratBit!
    Комментировать посты могут только пользователи прошедшие не сложную регистрацию
    Показать сообщения:    

    Ночные игры через торрент
    Скачать бесплатно Ночные игры
    Ночные игры скачать торрент
    Ночные игры смотреть онлайн
    Cкачать фильм Ночные игры бесплатно
    Ночные игры скачать торрент в хорошем качестве
    Ночные игры смотреть онлайн бесплатно в хорошем качестве


    Вы не можете начинать темы
    Вы не можете отвечать на сообщения
    Вы не можете редактировать свои сообщения
    Вы не можете удалять свои сообщения
    Вы не можете голосовать в опросах
    Вы не можете прикреплять файлы к сообщениям
    Вы можете скачивать файлы