Доктор Стрэндж

Лицензия

Добыча

Дубляж

Дом дракона

1 сезон

Тор

Дубляж

В эфире

Дубляж

Там, где раки поют

MVO

Властелин колец

1 сезон

Deluxe

pack

Рекомендуем

30

Пиратка

ВАЖНО

ВАЖНО

Ghostwire

Пиратка

jed

RePack

nioh2

RePack

RDR2

RePack

NEED FOR SPEED™ PAYBACK

RePack

скачать торрент

Кинопоиск HD

Острые козырьки 6 сезон

6 сезон

FAR CRY 6

RePack

скачать торрент

Лицензия

скачать торрент

MVO

1

1 сезон

скачать торрент

1 сезон

скачать торрент

Лицензия

  

Двойной форсаж / 2 Fast 2 Furious (Джон Синглтон) [2003 г., боевик, триллер, криминал, BDRip 1080p, HEVC (10Bit), Дубляж]

Двойной форсаж через торрент pb.wtf

Размер: 5.51 GB | Добавлен: 4 года 5 мес. назад | Торрент скачан:203 раза
Смотреть онлайн | Скачать   

14-06-2018 17:34 Двойной форсаж Скачать торрент  

Двойной форсаж / 2 Fast 2 Furious
Год выпуска: 2003
Страна: США, Германия
Жанр: боевик, триллер, криминал
Продолжительность: 01:47:35
Перевод: Дубляж
Субтитры: Отсутствуют

Режиссер: Джон Синглтон

rating

В ролях: Пол Уокер, Тайриз Гибсон, Ева Мендес, Коул Хаузер, Лудакрис, Том Бэрри, Джеймс Римар, Девон Аоки, Амори Ноласко, Майкл Или

Описание: Бывший полицейский Брайан О`Коннер вместе с напарником Романом Пирсом собираются перевезти крупную сумму «грязных» денег известного мафиози Картера Верона в качестве его подручных. Но на самом деле эта работа является только прикрытием для Брайана, который вместе с тайным агентом Моникой Фуэнтес должны уличить изворотливого преступника…
Доп. информация: -
H.265/HEVC (High Efficiency Video Coding) - это новый стандарт кодирования видео.
- Стандарт H.265/HEVC является логическим продолжением стандарта
H.264/AVC (Advanced Video Coding), и характеризуется более эффективными
алгоритмами сжатия, а также поддержкой высокого разрешения вплоть до 8K UHD
(8192x4320). Первая версия стандарта H.265 была опубликована в начале 2013 года.
- Рипы в фомате HEVC поддерживается не всеми аппаратными проигрывателями.
- Для корректного воспроизведения может потребоваться обновление ПО.
- Владельцам несовместимого железа просьба не беспокоить,
есть альтернативные релизы.
Качество: BDRip 1080p
Формат: MKV
Видео кодек: H.265
Аудио кодек: AC3
Видео: 1920x812, ~6690 Kbps 10Bit
Аудио: AC3, 6 ch, 640 Kbps
Релиз от: HANNIBAL Семпл
Общее
Уникальный идентификатор : 181484947669149502158856511991186633689 (0x8888BAC1A2E941E19DDE8A3DCF02B3D9)
Полное имя : J:\ФИЛЬМЫ\2 Fast 2 Furious (2003) BDRip 1080p [HEVC] 10Bit.mkv
Формат : Matroska
Версия формата : Version 4 / Version 2
Размер файла : 5,51 Гбайт
Продолжительность : 1 ч. 47 м.
Общий поток : 7325 Кбит/сек
Название фильма : 2.Fast.2.Furious.2003.BDRemux.1080p
Дата кодирования : UTC 2017-08-23 12:59:55
Программа кодирования : mkvmerge v13.0.0 ('The Juggler') 64bit
Библиотека кодирования : libebml v1.3.4 + libmatroska v1.4.5
Обложка : Yes
Attachments : cover.jpg

Видео
Идентификатор : 1
Формат : HEVC
Формат/Информация : High Efficiency Video Coding
Профиль формата : Main [email protected]@Main
Идентификатор кодека : V_MPEGH/ISO/HEVC
Продолжительность : 1 ч. 47 м.
Битрейт : 6690 Кбит/сек
Ширина : 1920 пикселей
Высота : 812 пикселей
Соотношение сторон : 2,35:1
Режим частоты кадров : Постоянный
Частота кадров : 23,976 (24000/1001) кадра/сек
Цветовое пространство : YUV
Субдискретизация насыщенности : 4:2:0
Битовая глубина : 10 бит
Бит/(Пиксели*Кадры) : 0.179
Размер потока : 5,02 Гбайт (91%)
Default : Да
Forced : Нет
Цветовой диапазон : Limited
Основные цвета : BT.709
Характеристики трансфера : BT.709
Коэффициенты матрицы : BT.709

Аудио
Идентификатор : 2
Формат : AC-3
Формат/Информация : Audio Coding 3
Идентификатор кодека : A_AC3
Продолжительность : 1 ч. 47 м.
Вид битрейта : Постоянный
Битрейт : 640 Кбит/сек
Каналы : 6 каналов
Расположение каналов : Front: L C R, Side: L R, LFE
Частота : 48,0 КГц
Частота кадров : 31,250 кадров/сек (1536 SPF)
Битовая глубина : 16 бит
Метод сжатия : С потерями
Размер потока : 493 Мбайт (9%)
Язык : Russian
ServiceKind/String : Complete Main
Default : Да
Forced : Нет

Меню
00:00:00.000 : en:(01)00:00:00:000
00:11:29.689 : en:(02)00:11:29:689
00:14:20.818 : en:(03)00:14:20:818
00:16:02.628 : en:(04)00:16:02:628
00:18:57.344 : en:(05)00:18:57:344
00:24:23.545 : en:(06)00:24:23:545
00:28:16.820 : en:(07)00:28:16:820
00:35:14.152 : en:(08)00:35:14:153
00:40:08.322 : en:(09)00:40:08:322
00:46:44.384 : en:(10)00:46:44:384
00:58:55.114 : en:(11)00:58:55:114
01:05:03.190 : en:(12)01:05:03:190
01:10:25.304 : en:(13)01:10:25:304
01:13:38.037 : en:(14)01:13:38:038
01:22:15.639 : en:(15)01:22:15:639
01:29:54.138 : en:(16)01:29:54:138
01:35:17.628 : en:(17)01:35:17:628
01:37:32.972 : en:(18)01:37:32:972
01:40:33.027 : en:(19)01:40:33:027
01:47:35.615 : en:(20)01:47:35:615




Скачать Двойной форсаж через торрент https://b.radikal.ru/b32/1806/bb/68a22268f2ae.jpg Скачать, смотреть онлайн Двойной форсаж бесплантно в хорошем качестве Описание: Бывший полицейский Брайан О`Коннер вместе с напарником Романом Пирсом собираются перевезти крупную сумму «грязных» денег ... 10 10 11
Торрент: Зарегистрирован [2018-06-14 17:34] · скачан: 203 раз
Статус: √ проверено
Размер: 5.51 GB
Как cкачать? Как скачать Двойной форсаж через торрент | UTorrent

% Раздел Тема Автор DL S | L
Ultra HD (UHD: 2K, 4K, 8K) [ 57.12 GB ] Двойной форсаж / 2 Fast 2 Furious | Дубляж | 2160p sheker187 Скачать
1 | 0
Фильмы [HD 720p, 1080p] (Хороший звук DUB, MVO) [ 7.76 GB ] Двойной форсаж / 2 Fast 2 Furious | Дубляж + Оригинал | 1080p, Дубляж + Оригинал Бумер Скачать
1 | 0

28-11-2019 20:33  


Отключить вcю реклaмy на сайте, в т.ч. и в плеере онлайн просмотра!

    Дорогой пользователь! Огромная просьба, поблагодарите релизера, оцените раздачу и оставьте свои комментарий, если Вы скачали Двойной форсаж через торрент бесплатно!!
    Комментировать посты могут только пользователи прошедшие не сложную регистрацию
    Показать сообщения:    


    Двойной форсаж через торрент
    Скачать бесплатно Двойной форсаж
    Двойной форсаж скачать торрент
    Двойной форсаж смотреть онлайн
    Cкачать фильм Двойной форсаж бесплатно
    Двойной форсаж скачать торрент в хорошем качестве
    Двойной форсаж смотреть онлайн бесплатно в хорошем качестве
    Вы не можете начинать темы
    Вы не можете отвечать на сообщения
    Вы не можете редактировать свои сообщения
    Вы не можете удалять свои сообщения
    Вы не можете голосовать в опросах
    Вы не можете прикреплять файлы к сообщениям
    Вы можете скачивать файлы
    Двойной форсаж / 2 Fast 2 Furious [2003 г., боевик, триллер, криминал, BDRip 1080p, HEVC , Дубляж] смотреть онлайн, скачать торрент picoco.icu