Всегда рабочее зеркало без VPN и Proxy просто перед .vidak.icu напиши любое слово или цифру, Пример http://k16s.vidak.icu

MVO

2 сезон

2 сезон

1

1 сезон

iTunes

2 сезон

13

1 сезон

Распродажа

pack

Рекомендуем

Пиратка

30

ВАЖНО

RePack

MK11

RePack

jed

RePack

fifa19

RePack

RDR2

RePack

NEED FOR SPEED™ PAYBACK

Кинопоиск HD

6 сезон

 Острые козырьки 6 сезон

Все сериалы

все сериалы на PB.wtf

RePack

FAR CRY 5

Anonymous, нам критически не хватает 5601 руб. на оплату серверов и переферии за Апрель, помоги нам пожалуйста, вся надежда только на тебя. В благодарность мы отключим тебе всю рекламу на сайте!

×
  
Magnet ссылка

Форсаж 5 / Fast Five (Джастин Лин) [2011 г., боевик, триллер, криминал, BDRip 1080p, HEVC (10Bit), Дубляж] pb.wtf

Форсаж 5 через торрент pb.wtf

Размер: 5.44 GB | Добавлен: 3 года 11 мес. назад | Торрент скачан:190 раз
Смотреть онлайн Форсаж 5 | Скачать    Ребята, помогите собрать деньги на оплату серверов!!!

15-06-2018 08:33 Форсаж 5 Скачать торрент  

Форсаж 5 / Fast Five
Год выпуска: 2011
Страна: США
Жанр: боевик, триллер, криминал
Продолжительность: 02:10:21
Перевод: Дубляж
Субтитры: Отсутствуют

Режиссер: Джастин Лин

rating

В ролях: Вин Дизель, Пол Уокер, Джордана Брюстер, Тайриз Гибсон, Лудакрис, Эльза Патаки, Галь Гадот, Тего Калдерон, Дон Омар, Мэтт Шульце

Описание: Бывший полицейский Брайан О`Коннер вместе с бывалым лихачом Домиником Торетто совсем немного увлеклись жизнью вне закона. После того, как Брайан и Миа Торетто освободили Доминика, они не рискуют долго задерживаться на одном месте, так как являются желанной целью порядком недовольных копов.
Доп. информация: -
H.265/HEVC (High Efficiency Video Coding) - это новый стандарт кодирования видео.
- Стандарт H.265/HEVC является логическим продолжением стандарта
H.264/AVC (Advanced Video Coding), и характеризуется более эффективными
алгоритмами сжатия, а также поддержкой высокого разрешения вплоть до 8K UHD
(8192x4320). Первая версия стандарта H.265 была опубликована в начале 2013 года.
- Рипы в фомате HEVC поддерживается не всеми аппаратными проигрывателями.
- Для корректного воспроизведения может потребоваться обновление ПО.
- Владельцам несовместимого железа просьба не беспокоить,
есть альтернативные релизы.
Качество: BDRip 1080p
Формат: MKV
Видео кодек: H.265
Аудио кодек: AC3
Видео: 1920x816, ~5529 Kbps 10Bit
Аудио: AC3, 6 ch, 448 Kbps
Релиз от: HANNIBAL
Общее
Уникальный идентификатор : 202213124690886418202826248863992793866 (0x9820D4C975A53141A2F7B5CBEE844B0A)
Полное имя : J:\ФИЛЬМЫ\Fast Five (2011) BDRip 1080p [HEVC] 10Bit.mkv
Формат : Matroska
Версия формата : Version 4 / Version 2
Размер файла : 5,44 Гбайт
Продолжительность : 2 ч. 10 м.
Общий поток : 5971 Кбит/сек
Название фильма : Fast.Five.2011.BDRemux.1080p
Дата кодирования : UTC 2017-09-14 19:18:15
Программа кодирования : mkvmerge v8.9.0 ('Father Daughter') 64bit
Библиотека кодирования : libebml v1.3.3 + libmatroska v1.4.4
Обложка : Yes
Attachments : cover.jpg

Видео
Идентификатор : 1
Формат : HEVC
Формат/Информация : High Efficiency Video Coding
Профиль формата : Main 10@L4@Main
Идентификатор кодека : V_MPEGH/ISO/HEVC
Продолжительность : 2 ч. 10 м.
Битрейт : 5529 Кбит/сек
Ширина : 1920 пикселей
Высота : 816 пикселей
Соотношение сторон : 2,35:1
Режим частоты кадров : Постоянный
Частота кадров : 23,976 (24000/1001) кадра/сек
Цветовое пространство : YUV
Субдискретизация насыщенности : 4:2:0
Битовая глубина : 10 бит
Бит/(Пиксели*Кадры) : 0.147
Размер потока : 5,03 Гбайт (92%)
Default : Да
Forced : Нет
Цветовой диапазон : Limited
Основные цвета : BT.709
Характеристики трансфера : BT.709
Коэффициенты матрицы : BT.709

Аудио
Идентификатор : 2
Формат : AC-3
Формат/Информация : Audio Coding 3
Идентификатор кодека : A_AC3
Продолжительность : 2 ч. 10 м.
Вид битрейта : Постоянный
Битрейт : 448 Кбит/сек
Каналы : 6 каналов
Расположение каналов : Front: L C R, Side: L R, LFE
Частота : 48,0 КГц
Частота кадров : 31,250 кадров/сек (1536 SPF)
Битовая глубина : 16 бит
Метод сжатия : С потерями
Размер потока : 418 Мбайт (8%)
Язык : Russian
ServiceKind/String : Complete Main
Default : Да
Forced : Нет

Меню
00:00:00.000 : en:(01)00:00:00:000
00:07:45.715 : en:(02)00:07:45:715
00:17:29.465 : en:(03)00:17:29:465
00:23:01.838 : en:(04)00:23:01:838
00:28:21.574 : en:(05)00:28:21:574
00:34:55.635 : en:(06)00:34:55:635
00:40:46.318 : en:(07)00:40:46:318
00:48:41.585 : en:(08)00:48:41:585
00:55:20.317 : en:(09)00:55:20:317
01:03:09.952 : en:(10)01:03:09:952
01:10:44.657 : en:(11)01:10:44:657
01:18:25.867 : en:(12)01:18:25:867
01:22:36.201 : en:(13)01:22:36:201
01:27:58.731 : en:(14)01:27:58:731
01:31:53.424 : en:(15)01:31:53:424
01:39:13.322 : en:(16)01:39:13:322
01:47:00.747 : en:(17)01:47:00:747
01:54:50.133 : en:(18)01:54:50:133
01:59:15.231 : en:(19)01:59:15:231
02:03:24.397 : en:(20)02:03:24:397
02:10:21.021 : en:(21)02:10:21:021

pb.wtf



Скачать Форсаж 5 через торрент https://c.radikal.ru/c11/1806/d8/c7e4619efc79.jpg Скачать, смотреть онлайн Форсаж 5 бесплантно в хорошем качестве Описание: Бывший полицейский Брайан О`Коннер вместе с бывалым лихачом Домиником Торетто совсем немного увлеклись жизнью вне закона. После ... 10 10 5
Торрент: Зарегистрирован [2018-06-15 08:33] · скачан: 190 раз
Статус: √ проверено
Размер: 5.44 GB
Как cкачать? Как скачать Форсаж 5 через торрент | UTorrent

% Раздел Тема Автор DL S | L
Фильмы [HD 720p, 1080p] (Хороший звук DUB, MVO) [ 7.76 GB ] Форсаж 5 / Fast Five [2011 BDRip 1080p + Оригинал] Бумер Скачать
1 | 0
Фильмы 2011 [ 1.95 GB ] Форсаж 5 / Fast Five [2011 HDRip ] 1mpulse2k20 Скачать
1 | 0

28-11-2019 20:33  

Отключить всю рекламу на сайте

    Дорогой пользователь! Огромная просьба, поблагодарите релизера, оцените раздачу и оставьте свои комментарий, если Вы скачали Форсаж 5 через торрент бесплатно!
    Комментировать посты могут только пользователи прошедшие не сложную регистрацию
    Показать сообщения:    

    Форсаж 5 через торрент
    Скачать бесплатно Форсаж 5
    Форсаж 5 скачать торрент
    Форсаж 5 смотреть онлайн
    Cкачать фильм Форсаж 5 бесплатно
    Форсаж 5 скачать торрент в хорошем качестве
    Форсаж 5 смотреть онлайн бесплатно в хорошем качестве


    Вы не можете начинать темы
    Вы не можете отвечать на сообщения
    Вы не можете редактировать свои сообщения
    Вы не можете удалять свои сообщения
    Вы не можете голосовать в опросах
    Вы не можете прикреплять файлы к сообщениям
    Вы можете скачивать файлы