2 сезон

iTunes

MVO

1

2 сезон

iTunes

iTunes

1 сезон

RePack

30

Ultimate

ВАЖНО

ИГРА 18+

pack

RePack

MK11
pack

Легкие деньги

RePack

jed

RePack

fifa19

RePack

RDR2

RePack

NEED FOR SPEED™ PAYBACK

4 сезон

9 сезон

Бесстыжие 9 сезон

Все сериалы

все сериалы на PB.wtf

RePack

FAR CRY 5

Anonymous, доброй ночи, мы не успеваем собрать деньги на оплату серверов за декабрь и январь, помогите нам пожалуйста в это трудное время. В качестве благодарности мы отключим Вам всю рекламу на сайте (укажите свой ник в строку Ваше имя)!

×
  
Magnet ссылка

Секретное досье / The Post (Стивен Спилберг) [2017, триллер, драма, биография, история, HDRip-AVC] Dub [Лицензия] - ExKinoRay pb.wtf

Секретное досье через торрент pb.wtf

Размер: 2.47 GB | Добавлен: 2 года 7 мес. назад | Торрент скачан:163 раза
Скачать  

16-06-2018 00:05 Секретное досье Скачать торрент  

Информация о фильме
Название: Секретное досье
Оригинальное название: The Post
Год выхода: 2017
Жанр: Триллер, драма, биография, история
Режиссер: Стивен Спилберг
В ролях: Мэрил Стрип, Том Хэнкс, Сара Полсон, Боб Оденкёрк, Трэйси Леттс, Брэдли Уитфорд, Брюс Гринвуд, Мэттью Рис, Элисон Бри, Кэрри Кун

Описание:
История Кэтрин Грэм, первой женщины-издателя газеты «Вашингтон пост», и редактора Бена Брэдли. Они вступают в гонку с «Нью-Йорк таймс» за право пролить свет на государственные тайны, скрывавшиеся более 30 лет. Журналистам придется преодолеть свои разногласия и рискнуть карьерой и свободой, чтобы мир узнал правду.

rating

Выпущено: США, Amblin Entertainment, DreamWorks SKG
Продолжительность: 01:55:58
Перевод: Дублированный [Лицензия]

Формат: MKV
Качество: HDRip-AVC
Видео: MPEG-4 AVC, 1024x552 (2.40:1), 23.976 fps, 2150 Kbps, 0.159 bit/pixel
Аудио #01: 48 kHz, AC3, 5.1, 448 Kbps | Лицензия | RUS |
Аудио #02: 48 kHz, AC3, 5.1, 448 Kbps | Оригинал | ENG |
Субтитры: Русские (форсированные, полные), английские

Сохранены оригинальные чаптеры как на блюрей.
General
Unique ID : 204121318931892726734632201559714047637 (0x99905606D71EF34EADBF69298FAC2695)
Complete name : D:\The.Post.2017.HDRip.AVC.ExKinoRay.mkv
Format : Matroska
Format version : Version 2
File size : 2.47 GiB
Duration : 1 h 55 min
Overall bit rate : 3 044 kb/s
Movie name : The Post 2017 from ExKinoRay
Encoded date : UTC 2018-06-15 23:36:54
Writing application : mkvmerge v5.6.0 ('Kenya Kane') built on May 27 2012 16:44:04
Writing library : libebml v1.2.3 + libmatroska v1.3.0

Video
ID : 1
Format : AVC
Format/Info : Advanced Video Codec
Format profile : High@L4.1
Format settings, CABAC : Yes
Format settings, ReFrames : 12 frames
Codec ID : V_MPEG4/ISO/AVC
Duration : 1 h 55 min
Bit rate : 2 150 kb/s
Width : 1 024 pixels
Height : 552 pixels
Display aspect ratio : 1.85:1
Frame rate mode : Constant
Frame rate : 23.976 (23976/1000) FPS
Color space : YUV
Chroma subsampling : 4:2:0
Bit depth : 8 bits
Scan type : Progressive
Bits/(Pixel*Frame) : 0.159
Stream size : 1.69 GiB (69%)
Title : Enigma
Writing library : x264 core 152 r2851 ba24899
Encoding settings : cabac=1 / ref=12 / deblock=1:-2:-2 / analyse=0x3:0x113 / me=umh / subme=10 / psy=1 / psy_rd=1.05:0.15 / mixed_ref=1 / me_range=32 / chroma_me=1 / trellis=2 / 8x8dct=1 / cqm=0 / deadzone=21,11 / fast_pskip=0 / chroma_qp_offset=-3 / threads=12 / lookahead_threads=3 / sliced_threads=0 / nr=0 / decimate=0 / interlaced=0 / bluray_compat=0 / constrained_intra=0 / bframes=10 / b_pyramid=2 / b_adapt=2 / b_bias=0 / direct=3 / weightb=1 / open_gop=0 / weightp=2 / keyint=240 / keyint_min=23 / scenecut=40 / intra_refresh=0 / rc_lookahead=40 / rc=2pass / mbtree=0 / bitrate=2150 / ratetol=1.0 / qcomp=0.60 / qpmin=0 / qpmax=51 / qpstep=4 / cplxblur=20.0 / qblur=0.5 / vbv_maxrate=50000 / vbv_bufsize=62500 / nal_hrd=none / filler=0 / ip_ratio=1.40 / pb_ratio=1.30 / aq=3:0.90
Language : English
Default : Yes
Forced : No
Color range : Limited
Color primaries : BT.709
Transfer characteristics : BT.709
Matrix coefficients : BT.709

Audio #1
ID : 2
Format : AC-3
Format/Info : Audio Coding 3
Mode extension : CM (complete main)
Format settings, Endianness : Big
Codec ID : A_AC3
Duration : 1 h 55 min
Bit rate mode : Constant
Bit rate : 448 kb/s
Channel(s) : 6 channels
Channel positions : Front: L C R, Side: L R, LFE
Sampling rate : 48.0 kHz
Frame rate : 31.250 FPS (1536 spf)
Compression mode : Lossy
Stream size : 372 MiB (15%)
Title : Dub (Blu-Ray)
Language : Russian
Default : Yes
Forced : No

Audio #2
ID : 3
Format : AC-3
Format/Info : Audio Coding 3
Mode extension : CM (complete main)
Format settings, Endianness : Big
Codec ID : A_AC3
Duration : 1 h 55 min
Bit rate mode : Constant
Bit rate : 448 kb/s
Channel(s) : 6 channels
Channel positions : Front: L C R, Side: L R, LFE
Sampling rate : 48.0 kHz
Frame rate : 31.250 FPS (1536 spf)
Compression mode : Lossy
Stream size : 372 MiB (15%)
Language : English
Default : No
Forced : No

Text #1
ID : 4
Format : UTF-8
Codec ID : S_TEXT/UTF8
Codec ID/Info : UTF-8 Plain Text
Title : Forced
Language : Russian
Default : Yes
Forced : No

Text #2
ID : 5
Format : UTF-8
Codec ID : S_TEXT/UTF8
Codec ID/Info : UTF-8 Plain Text
Title : Full
Language : Russian
Default : No
Forced : No

Text #3
ID : 6
Format : UTF-8
Codec ID : S_TEXT/UTF8
Codec ID/Info : UTF-8 Plain Text
Title : full
Language : English
Default : No
Forced : No

Text #4
ID : 7
Format : UTF-8
Codec ID : S_TEXT/UTF8
Codec ID/Info : UTF-8 Plain Text
Title : sdh
Language : English
Default : No
Forced : No

Menu
00:00:00.000 : en:00:00:00.000
00:05:01.927 : en:00:05:01.927
00:10:08.733 : en:00:10:08.733
00:12:32.794 : en:00:12:32.794
00:16:22.398 : en:00:16:22.398
00:19:19.617 : en:00:19:19.617
00:24:53.325 : en:00:24:53.325
00:30:23.989 : en:00:30:23.989
00:34:51.673 : en:00:34:51.673
00:39:08.680 : en:00:39:08.680
00:43:25.812 : en:00:43:25.812
00:48:20.564 : en:00:48:20.564
00:54:38.692 : en:00:54:38.692
00:59:39.785 : en:00:59:39.785
01:03:49.117 : en:01:03:49.117
01:09:59.570 : en:01:09:59.570
01:14:04.857 : en:01:14:04.857
01:20:20.274 : en:01:20:20.274
01:24:30.732 : en:01:24:30.732
01:30:22.667 : en:01:30:22.667
01:35:23.760 : en:01:35:23.760
01:38:46.546 : en:01:38:46.546
01:43:07.723 : en:01:43:07.723
01:49:27.853 : en:01:49:27.853
Релиз от:

Автор релиза: pb.wtf



Скачать Секретное досье через торрент http://lostpix.com/img/2018-04/04/o2g5qw8obcyv75xsxnsurmba0.jpg Скачать фильм Секретное досье через торрент бесплантно в хорошем качестве Описание:История Кэтрин Грэм, первой женщины-издателя газеты «Вашингтон пост», и редактора Бена Брэдли. Они вступают в гонку с «Нью-Йорк ... 10 10 4
Info! Золотая раздача, скачанное не засчитывается.
Торрент: Зарегистрирован [2018-06-16 00:05] · скачан: 163 раз
Статус: √ проверено
Размер: 2.47 GB
Как cкачать? Как скачать Секретное досье через торрент | UTorrent

28-11-2019 20:33  

Отключить всю рекламу на сайте

    Дорогой пользователь! Огромная просьба, поблагодарите релизера, оцените раздачу и оставьте свои комментарий, если Вы скачали Секретное досье через торрент бесплатно! Внесите свою лепту в развитие PiratBit!
    Комментировать посты могут только пользователи прошедшие не сложную регистрацию
    Показать сообщения:    

    Секретное досье через торрент
    Скачать бесплатно Секретное досье
    Секретное досье скачать торрент
    Секретное досье смотреть онлайн
    Cкачать фильм Секретное досье бесплатно
    Секретное досье скачать торрент в хорошем качестве
    Секретное досье смотреть онлайн бесплатно в хорошем качестве


    Вы не можете начинать темы
    Вы не можете отвечать на сообщения
    Вы не можете редактировать свои сообщения
    Вы не можете удалять свои сообщения
    Вы не можете голосовать в опросах
    Вы не можете прикреплять файлы к сообщениям
    Вы можете скачивать файлы