Мега распродажа FORZA HORIZON 4 ULTIMATE+ВСЕ DLC+ОНЛАЙН всего за 499р. 349 руб. (супер цена). Внимание количество ограничено!!!

iTunes

1+1

iTunes

мы

iTunes

1

1 сезон

Чернобыль

1 сезон

Ральф против интернета

Лицензия

ПШазам

8 сезон

Игра престолов

Лицензия

30
pack

ВАЖНО

!!Акция!!

Alien_RageХит недели

RePack

Resident Evil 21

ИГРА 18+

pack

RePack

Metro:Exodus

!!Акция!!

Alien_Rage

RePack

fifa19

RePack

Assassins Creed: Odyssey

RePack

NEED FOR SPEED™ PAYBACK

3 сезон

9 сезон

Бесстыжие 9 сезон

Все сериалы

все сериалы на PB.wtf

RePack

FAR CRY 5
Ребята, катастрофически не хватает 2730р. для оплаты серверов за ИЮНЬ (всвязи с блокировками трафик упал в 3 раза), 1-2р., выручайте.
  

Канадский бекон / Canadian Bacon (Майкл Мур) [1995 г., Комедия, DVDRip-AVC, Профессиональный (многоголосый)] от ExKinoRay pb.wtf

Канадский бекон через торрент pb.wtf

Размер: 2.34 GB | Добавлен: 1 год 1 мес. назад | Торрент скачан:12 раз
Скачать  

16-06-2018 04:55 Канадский бекон Скачать торрент  

Канадский бекон / Canadian Bacon
Год выпуска: 1995
Страна: США
Жанр: Комедия
Продолжительность: 01:30:37
Перевод: Профессиональный (многоголосый)
Субтитры: Русские

Режиссер: Майкл Мур

Бюджет: $11 000 000
Премьера в мире: 8 июня 1995

rating

В ролях: Джон Кэнди, Алан Алда, Реа Перлман, Кевин Поллак, Рип Торн, Кевин Дж. О’Коннор, Билл Нанн, Г.Д. Спрэдлин, Джеймс Белуши, Стивен Райт

Описание: В городе Ниагара Фоллз закрывают крупную корпорацию, занимающуюся производством оружия, в результате чего 2000 человек лишаются работы. Начинаются массовые самоубийства, с которыми администрация борется странными методами: лицам, отказавшимся от сведения счетов с жизнью, платят 25 долларов, а лицам, выуживающим трупы из знаменитого водопада, платят 50 "зелененьких". Как решить эту проблему? Над этим бъется аппарат президента, ЦРУ, ФБР, пытаясь даже найти нового врага, так как холодная война закончилась. Но русские слишком заняты мерседесами и сотовыми телефонами и железного занавеса не желают.

Качество: DVDRip-AVC
Формат: MKV
Видео кодек: MPEG4
Аудио кодек: AC3
Видео: MPEG-4 AVC, 2800 Кбит/с, 716x576@762x576, 25 кадров/сек
Аудио#1: Русский (AC3, 5 ch, 448 Кбит/с, 48 КГц)
Аудио#2: Английский (AC3, 5 ch, 448 Кбит/с, 48 КГц)
Релиз от:




avs [info]: 716x576p 16:15 @ 25/1 fps (cfr)
x264 [info]: using SAR=16/15
x264 [info]: using cpu capabilities: MMX2 SSE2Fast LZCNT
x264 [info]: profile High, level 4.1
x264 [info]: frame I:1012 Avg QP:17.51 size: 61273
x264 [info]: frame P:27339 Avg QP:19.74 size: 28229
x264 [info]: frame B:107575 Avg QP:21.66 size: 9937
x264 [info]: consecutive B-frames: 1.3% 1.6% 11.0% 7.9% 5.7% 69.5% 1.3% 0.3% 0.6% 0.1% 0.2% 0.5% 0.0% 0.0% 0.0% 0.0% 0.0%
-----
Общее
Уникальный идентификатор : 208837854789941060166769752709735943063 (0x9D1CB532C8BBB0DBB21DFA34EA0C8B97)
Полное имя : D:\ExKinoRayRips\Canadian.Bacon.1995.DVDRip-AVC.ExKinoRay.mkv
Формат : Matroska
Версия формата : Version 2
Размер файла : 2,34 Гбайт
Продолжительность : 1 ч. 30 м.
Общий поток : 3698 Кбит/сек
Дата кодирования : UTC 2018-06-16 02:02:41
Программа кодирования : mkvmerge v7.8.0 ('River Man') 32bit built on Apr 3 2015 12:11:22
Библиотека кодирования : libebml v1.3.1 + libmatroska v1.4.2

Видео
Идентификатор : 1
Формат : AVC
Формат/Информация : Advanced Video Codec
Профиль формата : High@L4.1
Параметр CABAC формата : Да
Параметр ReFrames формата : 14 кадров
Идентификатор кодека : V_MPEG4/ISO/AVC
Продолжительность : 1 ч. 30 м.
Битрейт : 2800 Кбит/сек
Ширина : 716 пикселей
Высота : 576 пикселей
Соотношение сторон : 4:3
Соотношение сторон в оригинале : 4:3
Режим частоты кадров : Постоянный
Частота кадров : 25,000 кадров/сек
Цветовое пространство : YUV
Субдискретизация насыщенности : 4:2:0
Битовая глубина : 8 бит
Тип развёртки : Прогрессивная
Бит/(Пиксели*Кадры) : 0.272
Размер потока : 1,73 Гбайт (74%)
Библиотека кодирования : x264 core 148 r2638 7599210
Настройки программы : cabac=1 / ref=14 / deblock=1:-2:-2 / analyse=0x3:0x133 / me=umh / subme=10 / psy=1 / psy_rd=1.05:0.15 / mixed_ref=1 / me_range=32 / chroma_me=1 / trellis=2 / 8x8dct=1 / cqm=0 / deadzone=21,11 / fast_pskip=0 / chroma_qp_offset=-3 / threads=4 / lookahead_threads=1 / sliced_threads=0 / nr=0 / decimate=0 / interlaced=0 / bluray_compat=0 / constrained_intra=0 / bframes=16 / b_pyramid=2 / b_adapt=2 / b_bias=0 / direct=3 / weightb=1 / open_gop=0 / weightp=2 / keyint=250 / keyint_min=25 / scenecut=40 / intra_refresh=0 / rc=2pass / mbtree=0 / bitrate=2800 / ratetol=1.0 / qcomp=0.60 / qpmin=0 / qpmax=69 / qpstep=4 / cplxblur=20.0 / qblur=0.5 / ip_ratio=1.40 / pb_ratio=1.30 / aq=1:1.00
Язык : English
Default : Да
Forced : Нет
Цветовой диапазон : Limited
Основные цвета : BT.601 NTSC
Характеристики трансфера : BT.601
Коэффициенты матрицы : BT.601

Аудио #1
Идентификатор : 2
Формат : AC-3
Формат/Информация : Audio Coding 3
Расширение режима : CM (complete main)
Параметр Endianness формата : Big
Идентификатор кодека : A_AC3
Продолжительность : 1 ч. 30 м.
Вид битрейта : Постоянный
Битрейт : 448 Кбит/сек
Каналы : 5 каналов
Расположение каналов : Front: L C R, Side: L R
Частота : 48,0 КГц
Частота кадров : 31,250 кадров/сек (1536 spf)
Метод сжатия : С потерями
Размер потока : 290 Мбайт (12%)
Язык : Russian
Default : Да
Forced : Нет

Аудио #2
Идентификатор : 3
Формат : AC-3
Формат/Информация : Audio Coding 3
Расширение режима : CM (complete main)
Параметр Endianness формата : Big
Идентификатор кодека : A_AC3
Продолжительность : 1 ч. 30 м.
Вид битрейта : Постоянный
Битрейт : 448 Кбит/сек
Каналы : 5 каналов
Расположение каналов : Front: L C R, Side: L R
Частота : 48,0 КГц
Частота кадров : 31,250 кадров/сек (1536 spf)
Метод сжатия : С потерями
Размер потока : 290 Мбайт (12%)
Язык : English
Default : Нет
Forced : Нет

Текст
Идентификатор : 4
Формат : UTF-8
Идентификатор кодека : S_TEXT/UTF8
Идентификатор кодека/Информация : UTF-8 Plain Text
Язык : Russian
Default : Да
Forced : Нет

pb.wtf



Скачать Канадский бекон через торрент http://c.radikal.ru/c33/1806/46/22a920a728ec.jpg Скачать фильм Канадский бекон через торрент бесплантно в хорошем качестве Описание: В городе Ниагара Фоллз закрывают крупную корпорацию, занимающуюся м оружия, в результате чего 2000 человек лишаются ... 10 10 3
Info! Золотая раздача, скачанное не засчитывается.
Торрент: Зарегистрирован [2018-06-16 04:55] · скачан: 12 раз
Статус: √ проверено
Размер: 2.34 GB
Как cкачать? Как скачать Канадский бекон через торрент | qTorrent


>> Регистрируемся здесь <<






Отзывы и комментарии о схеме читаем и пишем здесь: ---> Отзывы и комментарии о схеме

Новые благодарочки в телеграм довольных пользователей:
скриншот   скриншот   скриншот   скриншот   скриншот

16-06-2018 08:12 Канадский бекон Скачать торрент  

Топик был перенесен из форума Оформление раздач (Кино, Видео и ТВ) в форум Фильмы до 2000 г.


-Lexx-pb.wtf



16-06-2018 11:01 Канадский бекон Скачать торрент  

мда точно описаны нынешние времена, ниче не меняется)pb.wtf



    Дорогой пользователь! Огромная просьба, поблагодарите релизера, оцените раздачу и оставьте свои комментарий, если Вы скачали Канадский бекон через торрент бесплатно! Внесите свою лепту в развитие PiratBit!
    Комментировать посты могут только пользователи прошедшие не сложную регистрацию
    Показать сообщения:    

    Канадский бекон через торрент
    Скачать бесплатно Канадский бекон
    Канадский бекон скачать торрент
    Канадский бекон смотреть онлайн
    Cкачать фильм Канадский бекон бесплатно
    Канадский бекон скачать торрент в хорошем качестве
    Канадский бекон смотреть онлайн бесплатно в хорошем качестве


    Вы не можете начинать темы
    Вы не можете отвечать на сообщения
    Вы не можете редактировать свои сообщения
    Вы не можете удалять свои сообщения
    Вы не можете голосовать в опросах
    Вы не можете прикреплять файлы к сообщениям
    Вы можете скачивать файлы