Ссылка на приватное зеркало нашего сайта всего за 1$. Внимание количество ограничено!!!

2 сезон

iTunes

1 сезон

1

2 сезон

2 сезон

iTunes

1 сезон

RePack

30

Новинка

ВАЖНО

ИГРА 18+

pack

RePack

MK11
pack

Забери бонус

RePack

jed

!!Акция!!

Alien_Rage

RePack

fifa19

RePack

Assassins Creed: Odyssey

RePack

NEED FOR SPEED™ PAYBACK

4 сезон

9 сезон

Бесстыжие 9 сезон

Все сериалы

все сериалы на PB.wtf

RePack

FAR CRY 5
  

Дождь / The Rain / Сезон: 1 / Серии: 1-8 из 8 (Кеннет Кайнц, Наташа Артю) [2018, Триллер, WEB-DLRip] DVO [Кубик в Кубе] pb.wtf

Дождь через торрент pb.wtf

Размер: 4.18 GB | Добавлен: 2 года 5 мес. назад | Торрент скачан:90 раз
Скачать  

16-06-2018 10:21 Дождь Скачать торрент  

Дождь / The Rain
Год выпуска: 2018
Страна: Дания, США
Жанр: Триллер
Продолжительность: ~ 00:45:00
Перевод: Профессиональный (Двухголосый) | Кубик в Кубе
Субтитры: отсутствуют

Режиссер: Кеннет Кайнц, Наташа Артю

rating

В ролях:

Ибен Яйль, Альба Аугуст, Лукас Тоннесен, Миккель Боэ Фёльсгор, Ларс Симонсен, Йоханнес Кунке

Описание:

Шесть лет назад смертоносный вирус стёр с лица Земли почти всё человечество. В специальном бункере скрываются брат и сестра, но необходимость в скором времени заставляет их покинуть уютное убежище и выйти на поверхность. Они отправляются на поиски пропавшего без вести отца, который оставил после себя лишь записную книжку, где описаны вирус и опасности нового мира.
Посреди останков былой роскоши они встречают других выживших, надеющихся найти очаги новой цивилизации. Но вокруг их ждёт только смерть. Особенно если не следовать главному правилу постапокалипсиса: никогда и ни при каких обстоятельствах не попадать под дождь.



Качество: WEB-DLRip
Формат: AVI

Видео: 704х352 at 23.976 fps, XviD, ~1500 kbps avg
Аудио#1: Rus: 48 kHz, MP3, 2 ch, ~192 kbps avg |Двухголосый закадровый, Кубик в Кубе|
Аудио#2: Dat: 48 kHz, MP3, 2 ch, ~192 kbps avg
скриншот   скриншот   скриншот   скриншот   скриншот  

Общее
Полное имя : E:\The.Rain.S01.Kubik.v.Kube\The.Rain.S01E01.KvK.avi
Формат : AVI
Формат/Информация : Audio Video Interleave
Размер файла : 622 Мбайт
Продолжительность : 46 м. 56 с.
Общий поток : 1851 Кбит/сек
Программа кодирования : VirtualDubMod 1.5.10.3 | www.virtualdub-fr.org || (build 2550/release)
Библиотека кодирования : VirtualDubMod build 2550/release

Видео
Идентификатор : 0
Формат : MPEG-4 Visual
Профиль формата : Advanced Simple@L5
Настройки формата : BVOP1
Параметр BVOP формата : 1
Параметр QPel формата : Нет
Параметр GMC формата : Без точки перехода
Параметр матрицы формата : Default (MPEG)
Идентификатор кодека : XVID
Идентификатор кодека/Подсказка : XviD
Продолжительность : 46 м. 56 с.
Битрейт : 1453 Кбит/сек
Ширина : 704 пикселя
Высота : 352 пикселя
Соотношение сторон : 2,000
Частота кадров : 25,000 кадров/сек
Цветовое пространство : YUV
Субдискретизация насыщенности : 4:2:0
Битовая глубина : 8 бит
Тип развёртки : Прогрессивная
Метод сжатия : С потерями
Бит/(Пиксели*Кадры) : 0.235
Размер потока : 488 Мбайт (78%)
Библиотека кодирования : XviD 73

Аудио #1
Идентификатор : 1
Формат : MPEG Audio
Версия формата : Version 1
Профиль формата : Layer 3
Идентификатор кодека : 55
Идентификатор кодека/Подсказка : MP3
Продолжительность : 46 м. 56 с.
Вид битрейта : Постоянный
Битрейт : 192 Кбит/сек
Каналы : 2 канала
Частота : 48,0 КГц
Метод сжатия : С потерями
Размер потока : 64,5 Мбайт (10%)
Выравнивание : Соединение по промежуткам
Продолжительность промежутка : 40 мс. (1,00 видеокадр)
Время предзагрузки промежутка : 504 мс.

Аудио #2
Идентификатор : 2
Формат : MPEG Audio
Версия формата : Version 1
Профиль формата : Layer 3
Настройки формата : Joint stereo
Идентификатор кодека : 55
Идентификатор кодека/Подсказка : MP3
Продолжительность : 46 м. 56 с.
Вид битрейта : Постоянный
Битрейт : 192 Кбит/сек
Каналы : 2 канала
Частота : 48,0 КГц
Метод сжатия : С потерями
Размер потока : 64,5 Мбайт (10%)
Выравнивание : Соединение по промежуткам
Продолжительность промежутка : 40 мс. (1,00 видеокадр)
Время предзагрузки промежутка : 504 мс.

pb.wtf



Скачать Дождь через торрент http://i104.fastpic.ru/big/2018/0504/76/ff2778f1e9c8f98b61045cb6e5775c76.jpg Скачать фильм Дождь через торрент бесплантно в хорошем качестве Описание: Шесть лет назад смертоносный вирус стёр с лица Земли почти всё человечество. В специальном бункере скрываются брат и сестра, но ... 10 10 2
Торрент: Зарегистрирован [2018-06-16 10:21] · скачан: 90 раз
Статус: √ проверено
Размер: 4.18 GB
Как cкачать? Как скачать Дождь через торрент | qTorrent

% Раздел Тема Автор DL S | L
Зарубежные сериалы [ 3.89 GB ] Дождь / The Rain / Сезон: 1 / Серии: 1-8 из 8 [2018 WEB-DLRip] MVO [Good People] bober100 Скачать
1 | 0
Зарубежные сериалы [ 13.05 GB ] Дождь / The Rain / Сезон: 1 / Серии: 1-8 из 8 [2018 WEBRip 1080p] MVO [TVShows] bober100 Скачать
1 | 0
Зарубежные сериалы [ 5.43 GB ] Дождь / The Rain / Сезон: 1 / Серии: 1-8 из 8 [2018 WEBRip] MVO [TVShows] bober100 Скачать
1 | 0
Зарубежные сериалы [ 13.04 GB ] Дождь / The Rain / Сезон: 1 / Серии: 1-8 из 8 [2018 WEB-DL 1080p] [MVO] killermax2013 Скачать
1 | 0
Зарубежные сериалы [ 6.37 GB ] Дождь / The Rain / Сезон: 1 / Серии: 1-8 из 8 [2018 WEBRip] MVO [Jaskier] bober100 Скачать
1 | 0
Зарубежные сериалы [ 3.78 GB ] Дождь / The Rain / Сезон: 1 / Серии: 1-8 из 8 [2018 WEBRip] MVO [Jaskier] bober100 Скачать
1 | 0
Зарубежные сериалы [ 5.46 GB ] Дождь / The Rain / Сезон: 1 / Серии: 1-8 из 8 [2018 WEBRip 720p] DVO [SunshineStudio] bober100 Скачать
1 | 0

28-11-2019 20:33  

Отключить всю рекламу на сайте

16-06-2018 22:29 Дождь Скачать торрент  

Задумка на 5, исполнение на 3 "с натягом". Столько ядерныхфейспалмов я давно не ловил.pb.wtf



    Дорогой пользователь! Огромная просьба, поблагодарите релизера, оцените раздачу и оставьте свои комментарий, если Вы скачали Дождь через торрент бесплатно! Внесите свою лепту в развитие PiratBit!
    Комментировать посты могут только пользователи прошедшие не сложную регистрацию
    Показать сообщения:    

    Дождь через торрент
    Скачать бесплатно Дождь
    Дождь скачать торрент
    Дождь смотреть онлайн
    Cкачать фильм Дождь бесплатно
    Дождь скачать торрент в хорошем качестве
    Дождь смотреть онлайн бесплатно в хорошем качестве


    Вы не можете начинать темы
    Вы не можете отвечать на сообщения
    Вы не можете редактировать свои сообщения
    Вы не можете удалять свои сообщения
    Вы не можете голосовать в опросах
    Вы не можете прикреплять файлы к сообщениям
    Вы можете скачивать файлы