2 сезон

iTunes

MVO

1

2 сезон

iTunes

iTunes

1 сезон

RePack

30

Новинка

ВАЖНО

ИГРА 18+

pack

RePack

MK11
pack

Легкие деньги

RePack

jed

RePack

fifa19

RePack

RDR2

RePack

NEED FOR SPEED™ PAYBACK

4 сезон

9 сезон

Бесстыжие 9 сезон

Все сериалы

все сериалы на PB.wtf

RePack

FAR CRY 5

Anonymous, добрый вечер, мы не успеваем собрать деньги на оплату серверов за декабрь и январь, помогите нам пожалуйста в это трудное время. В качестве благодарности мы отключим Вам всю рекламу на сайте (укажите свой ник в строку Ваше имя)!

×
  
Magnet ссылка

Леди Бёрд / Lady Bird (Грета Гервиг) [2017, драма, комедия, BDRip-AVC] DUB [Лицензия] pb.wtf

Леди Бёрд через торрент pb.wtf

Размер: 2.19 GB | Добавлен: 2 года 7 мес. назад | Торрент скачан:138 раз
Скачать  

16-06-2018 10:34 Леди Бёрд Скачать торрент  

Леди Бёрд / Lady Bird
Год выпуска: 2017
Страна: США
Жанр: драма, комедия
Продолжительность: 01:34:04
Перевод: Дублированный | Лицензия
Субтитры: Русские, Английские

Режиссер: Грета Гервиг

rating

В ролях:


Сирша Ронан (Lady Bird McPherson), Лори Меткаф (Marion McPherson), Трэйси Леттс (Larry McPherson), Лукас Хеджес (Danny O'Neill), Тимоти Шаламе (Kyle Scheible), Бини Фелдштейн (Julie Steffans), Лоис Смит (Sister Sarah Joan), Стивен Хендерсон (Father Leviatch), Одейя Раш (Jenna Walton), Джордан Родригез (Miguel McPherson), Мариэль Эйснер (Shelly Yuhan), Джон Карна (Greg Anrue)
Описание:

История старшеклассницы, которая провела год в Сакраменто. Главная героиня пытается сбежать из своего маленького городка в Нью-Йорк, заручившись поддержкой приёмного старшего брата.

Качество: BDRip-AVC
Формат: MKV

Видео: 1024x552 (1.85:1), 23,976 fps, x264 ~2 434 kbps avg, 0.118 bit/pixel
Аудио#1: 48 kHz, AC3 Dolby Digital, 3/2 (L,C,R,l,r) + LFE ch, ~448.00 kbps avg | RUS (Лицензия)
Аудио#2: 48 kHz, AC3 Dolby Digital, 3/2 (L,C,R,l,r) + LFE ch, ~448.00 kbps avg | ENG
скриншот   скриншот   скриншот   скриншот  

Общее
Уникальный идентификатор : 171375919366637019867630621167464439546 (0x80EDCD2E278516B488F0045ACD1B5EFA)
Полное имя : D:ЗагрузкиLady.Bird.2017.BDRip.(AVC).OlLanDGroup.mkv
Формат : Matroska
Версия формата : Version 4 / Version 2
Размер файла : 2,19 Гбайт
Продолжительность : 1 ч. 34 м.
Общий поток : 3327 Кбит/сек
Название фильма : Lady.Bird.2017 #TorpedoUK#
Дата кодирования : UTC 2018-06-16 10:15:46
Программа кодирования : mkvmerge v6.5.0 ('Isn't she lovely') built on Oct 20 2013 12:50:05
Библиотека кодирования : libebml v1.3.0 + libmatroska v1.4.1

Видео
Идентификатор : 1
Формат : AVC
Формат/Информация : Advanced Video Codec
Профиль формата : High@L4.1
Параметр CABAC формата : Да
Параметр RefFrames формата : 10 кадров
Идентификатор кодека : V_MPEG4/ISO/AVC
Продолжительность : 1 ч. 34 м.
Битрейт : 2434 Кбит/сек
Ширина : 1024 пикселя
Высота : 552 пикселя
Соотношение сторон : 1,85:1
Режим частоты кадров : Постоянный
Частота кадров : 23,976 (24000/1001) кадра/сек
Цветовое пространство : YUV
Субдискретизация насыщенности : 4:2:0
Битовая глубина : 8 бит
Тип развёртки : Прогрессивная
Бит/(Пиксели*Кадры) : 0.180
Размер потока : 1,55 Гбайт (71%)
Библиотека кодирования : x264 core 146 r2538 121396c
Настройки программы : cabac=1 / ref=10 / deblock=1:-2:-3 / analyse=0x3:0x133 / me=umh / subme=11 / psy=1 / psy_rd=0.95:0.09 / mixed_ref=1 / me_range=48 / chroma_me=1 / trellis=2 / 8x8dct=1 / cqm=0 / deadzone=21,11 / fast_pskip=1 / chroma_qp_offset=-3 / threads=6 / lookahead_threads=1 / sliced_threads=0 / nr=0 / decimate=1 / interlaced=0 / bluray_compat=0 / constrained_intra=0 / bframes=10 / b_pyramid=2 / b_adapt=2 / b_bias=0 / direct=3 / weightb=1 / open_gop=0 / weightp=2 / keyint=240 / keyint_min=23 / scenecut=40 / intra_refresh=0 / rc_lookahead=40 / rc=2pass / mbtree=0 / bitrate=2434 / ratetol=1.0 / qcomp=0.60 / qpmin=0 / qpmax=69 / qpstep=4 / cplxblur=20.0 / qblur=0.5 / vbv_maxrate=50000 / vbv_bufsize=62500 / nal_hrd=none / filler=0 / ip_ratio=1.40 / pb_ratio=1.30 / aq=1:1.00
Язык : English
Default : Да
Forced : Нет

Аудио #1
Идентификатор : 2
Формат : AC-3
Формат/Информация : Audio Coding 3
Расширение режима : CM (complete main)
Параметр Endianness формата : Big
Идентификатор кодека : A_AC3
Продолжительность : 1 ч. 34 м.
Вид битрейта : Постоянный
Битрейт : 448 Кбит/сек
Каналы : 6 каналов
Расположение каналов : Front: L C R, Side: L R, LFE
Частота : 48,0 КГц
Частота кадров : 31,250 кадров/сек (1536 spf)
Метод сжатия : С потерями
Размер потока : 301 Мбайт (13%)
Заголовок : Лицензия
Язык : Russian
Default : Да
Forced : Нет

Аудио #2
Идентификатор : 3
Формат : AC-3
Формат/Информация : Audio Coding 3
Расширение режима : CM (complete main)
Параметр Endianness формата : Big
Идентификатор кодека : A_AC3
Продолжительность : 1 ч. 34 м.
Вид битрейта : Постоянный
Битрейт : 448 Кбит/сек
Каналы : 6 каналов
Расположение каналов : Front: L C R, Side: L R, LFE
Частота : 48,0 КГц
Частота кадров : 31,250 кадров/сек (1536 spf)
Метод сжатия : С потерями
Размер потока : 301 Мбайт (13%)
Заголовок : Original
Язык : English
Default : Нет
Forced : Нет

Текст #1
Идентификатор : 4
Формат : UTF-8
Идентификатор кодека : S_TEXT/UTF8
Идентификатор кодека/Информация : UTF-8 Plain Text
Заголовок : Forced
Язык : Russian
Default : Да
Forced : Нет

Текст #2
Идентификатор : 5
Формат : UTF-8
Идентификатор кодека : S_TEXT/UTF8
Идентификатор кодека/Информация : UTF-8 Plain Text
Заголовок : Full
Язык : Russian
Default : Нет
Forced : Нет

Текст #3
Идентификатор : 6
Формат : UTF-8
Идентификатор кодека : S_TEXT/UTF8
Идентификатор кодека/Информация : UTF-8 Plain Text
Заголовок : Full
Язык : English
Default : Нет
Forced : Нет

Меню
00:00:00.000 : en:Chapter 1
00:06:15.750 : en:Chapter 2
00:11:33.526 : en:Chapter 3
00:18:37.199 : en:Chapter 4
00:25:04.669 : en:Chapter 5
00:30:19.943 : en:Chapter 6
00:35:51.899 : en:Chapter 7
00:42:07.316 : en:Chapter 8
00:47:24.883 : en:Chapter 9
00:52:13.046 : en:Chapter 10
00:57:45.170 : en:Chapter 11
01:05:06.736 : en:Chapter 12
01:10:47.201 : en:Chapter 13
01:16:44.266 : en:Chapter 14
01:22:02.417 : en:Chapter 15
01:28:49.824 : en:Chapter 16

pb.wtf



Скачать Леди Бёрд через торрент http://pic1.kartinco.top/images/11/5rez8.jpg Скачать фильм Леди Бёрд через торрент бесплантно в хорошем качестве Описание: История старшеклассницы, которая провела год в Сакраменто. Главная героиня пытается сбежать из своего маленького городка в ... 8.9 10 7
Торрент: Зарегистрирован [2018-06-16 10:34] · скачан: 138 раз
Статус: √ проверено
Размер: 2.19 GB
Как cкачать? Как скачать Леди Бёрд через торрент | UTorrent

% Раздел Тема Автор DL S | L
Фильмы 2017 [DVDrip, WEB-DLRip, HDrip] (DUB, MVO) [ 1.46 GB ] Леди Бёрд / Lady Bird [2017 BDRip] - [] Twi7ter Скачать
1 | 0
Фильмы 2017 [DVDrip, WEB-DLRip, HDrip] (DUB, MVO) [ 1.46 GB ] Леди Бёрд / Lady Bird [2017 BDRip] DUB [ BD EUR] bober100 Скачать
1 | 0
Фильмы [HD 720p, 1080p] (Хороший звук DUB, MVO) [ 4.3 GB ] Леди Бёрд / Lady Bird [2017 BDRip 720p] DUB [] bober100 Скачать
1 | 0
Фильмы (Blu-ray, BD-Remux, HDDVD) [ 23.2 GB ] Леди Бёрд / Lady Bird [2017 BD Remux 1080p] DUB [] bober100 Скачать
1 | 0
Фильмы [HD 720p, 1080p] (Хороший звук DUB, MVO) [ 8.25 GB ] Леди Бёрд / Lady Bird [2017 BDRip 1080p] DUB [] bober100 Скачать
1 | 0
Фильмы 2017 [DVDrip, WEB-DLRip, HDrip] (DUB, MVO) [ 745 MB ] Леди Бёрд / Lady Bird [2017 BDRip] DUB [ BD EUR] bober100 Скачать
1 | 0
Видео для КПК и Смартфонов [ 357 MB ] Леди Бёрд / Lady Bird [2017 HDRip КПК] Dub sergey82 Скачать
1 | 0

28-11-2019 20:33  

Отключить всю рекламу на сайте

    Дорогой пользователь! Огромная просьба, поблагодарите релизера, оцените раздачу и оставьте свои комментарий, если Вы скачали Леди Бёрд через торрент бесплатно! Внесите свою лепту в развитие PiratBit!
    Комментировать посты могут только пользователи прошедшие не сложную регистрацию
    Показать сообщения:    

    Леди Бёрд через торрент
    Скачать бесплатно Леди Бёрд
    Леди Бёрд скачать торрент
    Леди Бёрд смотреть онлайн
    Cкачать фильм Леди Бёрд бесплатно
    Леди Бёрд скачать торрент в хорошем качестве
    Леди Бёрд смотреть онлайн бесплатно в хорошем качестве


    Вы не можете начинать темы
    Вы не можете отвечать на сообщения
    Вы не можете редактировать свои сообщения
    Вы не можете удалять свои сообщения
    Вы не можете голосовать в опросах
    Вы не можете прикреплять файлы к сообщениям
    Вы можете скачивать файлы