Всегда рабочее зеркало без VPN и Proxy просто перед .vidak.icu напиши любое слово или цифру, Пример http://wpwa.vidak.icu

MVO

2 сезон

2 сезон

1

1 сезон

iTunes

2 сезон

13

1 сезон

Deluxe

pack

Рекомендуем

Пиратка

30

ВАЖНО

RePack

MK11

RePack

jed

RePack

fifa19

RePack

RDR2

RePack

NEED FOR SPEED™ PAYBACK

Кинопоиск HD

6 сезон

 Острые козырьки 6 сезон

Все сериалы

все сериалы на PB.wtf

RePack

FAR CRY 5

Anonymous, нам критически не хватает 5601 руб. на оплату серверов и переферии за Апрель, помоги нам пожалуйста, вся надежда только на тебя. В благодарность мы отключим тебе всю рекламу на сайте!

×
  
Magnet ссылка

Форсаж 7 / Furious Seven (Джеймс Ван) [2015 г., боевик, триллер, криминал, BDRip 1080p, HEVC (10bit), Дубляж] [Extended Cut] pb.wtf

Форсаж 7 через торрент pb.wtf

Размер: 5.79 GB | Добавлен: 3 года 11 мес. назад | Торрент скачан:355 раз
Смотреть онлайн Форсаж 7 | Скачать    Ребята, помогите собрать деньги на оплату серверов!!!

16-06-2018 11:09 Форсаж 7 Скачать торрент  

Форсаж 7 / Furious Seven
Год выпуска: 2015
Страна: США
Жанр: боевик, триллер, криминал
Продолжительность: 02:19:55
Перевод: Дубляж
Субтитры: Отсутствуют

Режиссер: Джеймс Ван

rating

В ролях: Вин Дизель, Пол Уокер, Дуэйн Джонсон, Джейсон Стэйтем, Мишель Родригес, Джордана Брюстер, Тайриз Гибсон, Лудакрис, Эльза Патаки, Лукас Блэк

Описание: Они покорили Токио и Рио, Лос-Анджелес и Лондон. Но мир больше не играет по их правилам. Зной арабских пустынь, неприлично высокие небоскребы, миллионы долларов на колесах и очень, очень знаменитый злодей. Скорость не знает границ.
Доп. информация: -
H.265/HEVC (High Efficiency Video Coding) - это новый стандарт кодирования видео.
- Стандарт H.265/HEVC является логическим продолжением стандарта
H.264/AVC (Advanced Video Coding), и характеризуется более эффективными
алгоритмами сжатия, а также поддержкой высокого разрешения вплоть до 8K UHD
(8192x4320). Первая версия стандарта H.265 была опубликована в начале 2013 года.
- Рипы в фомате HEVC поддерживается не всеми аппаратными проигрывателями.
- Для корректного воспроизведения может потребоваться обновление ПО.
- Владельцам несовместимого железа просьба не беспокоить,
есть альтернативные релизы.
Качество: BDRip 1080p
Формат: MKV
Видео кодек: H.265
Аудио кодек: AC3
Видео: 1920x800, ~5476 Kbps 10bit
Аудио: AC3, 6 ch, 448 Kbps
Релиз от: HANNIBAL
Общее
Уникальный идентификатор : 226607791213865162610940390163483135461 (0xAA7B12B4E9E59685A4E1C86693370DE5)
Полное имя : J:\ФИЛЬМЫ\Furious Seven [Extended Cut] (2015) BDRip 1080p [HEVC] 10bit.mkv
Формат : Matroska
Версия формата : Version 4 / Version 2
Размер файла : 5,79 Гбайт
Продолжительность : 2 ч. 19 м.
Общий поток : 5922 Кбит/сек
Название фильма : Furious.Seven.Extended.Cut.2015.BDRemux.1080р
Дата кодирования : UTC 2017-09-17 18:52:16
Программа кодирования : mkvmerge v8.9.0 ('Father Daughter') 64bit
Библиотека кодирования : libebml v1.3.3 + libmatroska v1.4.4
Обложка : Yes
Attachments : cover.jpg

Видео
Идентификатор : 1
Формат : HEVC
Формат/Информация : High Efficiency Video Coding
Профиль формата : Main 10@L4@Main
Идентификатор кодека : V_MPEGH/ISO/HEVC
Продолжительность : 2 ч. 19 м.
Битрейт : 5476 Кбит/сек
Ширина : 1920 пикселей
Высота : 800 пикселей
Соотношение сторон : 2,40:1
Режим частоты кадров : Постоянный
Частота кадров : 23,976 (24000/1001) кадра/сек
Цветовое пространство : YUV
Субдискретизация насыщенности : 4:2:0
Битовая глубина : 10 бит
Бит/(Пиксели*Кадры) : 0.149
Размер потока : 5,35 Гбайт (92%)
Default : Да
Forced : Нет
Цветовой диапазон : Limited
Основные цвета : BT.709
Характеристики трансфера : BT.709
Коэффициенты матрицы : BT.709

Аудио
Идентификатор : 2
Формат : AC-3
Формат/Информация : Audio Coding 3
Идентификатор кодека : A_AC3
Продолжительность : 2 ч. 19 м.
Вид битрейта : Постоянный
Битрейт : 448 Кбит/сек
Каналы : 6 каналов
Расположение каналов : Front: L C R, Side: L R, LFE
Частота : 48,0 КГц
Частота кадров : 31,250 кадров/сек (1536 SPF)
Битовая глубина : 16 бит
Метод сжатия : С потерями
Размер потока : 448 Мбайт (8%)
Язык : Russian
ServiceKind/String : Complete Main
Default : Да
Forced : Нет

Меню
00:00:00.000 : en:(01)00:00:00:000
00:04:39.946 : en:(02)00:04:39:946
00:11:29.480 : en:(03)00:11:29:480
00:16:39.289 : en:(04)00:16:39:289
00:25:54.052 : en:(05)00:25:54:052
00:33:43.896 : en:(06)00:33:43:896
00:41:44.585 : en:(07)00:41:44:585
00:46:41.006 : en:(08)00:46:41:006
00:52:10.710 : en:(09)00:52:10:710
01:02:31.414 : en:(10)01:02:31:414
01:06:16.680 : en:(11)01:06:16:680
01:14:16.868 : en:(12)01:14:16:868
01:22:34.032 : en:(13)01:22:34:032
01:33:21.137 : en:(14)01:33:21:137
01:38:27.484 : en:(15)01:38:27:484
01:45:40.083 : en:(16)01:45:40:083
01:53:54.452 : en:(17)01:53:54:452
01:58:31.062 : en:(18)01:58:31:062
02:06:19.863 : en:(19)02:06:19:863
02:11:31.174 : en:(20)02:11:31:174
02:19:54.593 : en:(21)02:19:54:594

pb.wtf



Скачать Форсаж 7 через торрент https://b.radikal.ru/b01/1806/34/d0b50d589425.jpg Скачать, смотреть онлайн Форсаж 7 бесплантно в хорошем качестве Описание: Они покорили Токио и Рио, Лос-Анджелес и Лондон. Но мир больше не играет по их правилам. Зной арабских пустынь, неприлично ... 10 10 9
Info! Золотая раздача, скачанное не засчитывается.
Торрент: Зарегистрирован [2018-06-16 11:09] · скачан: 355 раз
Статус: √ проверено
Размер: 5.79 GB
Как cкачать? Как скачать Форсаж 7 через торрент | UTorrent

% Раздел Тема Автор DL S | L
Фильмы (Blu-ray, BD-Remux, HDDVD) [ 25.65 GB ] Форсаж 7 / Furious Seven [Theatrical Cut] [2015 BD Remux 1080p - ] -Lexx- Скачать
1 | 0
Фильмы (WEB-DL 720p, 1080p) [ 4.7 GB ] Форсаж 7 / Furious Seven [2015 WEB-DL 1080p Russia] Ворон Скачать
1 | 0
Фильмы (HD 720p, 1080p) (48-60 fps) [ 6.8 GB ] Форсаж 7 / Furious Seven [2015 BDRip 720p Расширенная версия ] 48fps от mimok mimok Скачать
1 | 0
Фильмы 2015 [DVDrip, WEB-DLRip, HDrip] [ 2.18 GB ] Форсаж 7 / Furious Seven [2015 HDRipТеатральная версия ] coc900 Скачать
1 | 0
Фильмы 2015 [DVDrip, WEB-DLRip, HDrip] [ 2.66 GB ] Форсаж 7 / Furious Seven [2015 BDRip-AVC ] Ворон Скачать
1 | 0
T Фильмы [HD 720p, 1080p] (Хороший звук DUB, MVO) [ 10.2 GB ] Форсаж 7 / Furious Seven [2015 BDRip 1080p ] Ворон Скачать
1 | 0
Фильмы 2015 [DVDrip, WEB-DLRip, HDrip] [ 2.06 GB ] Форсаж 7 / Furious Seven [2015 HDRip ] Ворон Скачать
1 | 0

28-11-2019 20:33  

Отключить всю рекламу на сайте

    Дорогой пользователь! Огромная просьба, поблагодарите релизера, оцените раздачу и оставьте свои комментарий, если Вы скачали Форсаж 7 через торрент бесплатно!
    Комментировать посты могут только пользователи прошедшие не сложную регистрацию
    Показать сообщения:    

    Форсаж 7 через торрент
    Скачать бесплатно Форсаж 7
    Форсаж 7 скачать торрент
    Форсаж 7 смотреть онлайн
    Cкачать фильм Форсаж 7 бесплатно
    Форсаж 7 скачать торрент в хорошем качестве
    Форсаж 7 смотреть онлайн бесплатно в хорошем качестве


    Вы не можете начинать темы
    Вы не можете отвечать на сообщения
    Вы не можете редактировать свои сообщения
    Вы не можете удалять свои сообщения
    Вы не можете голосовать в опросах
    Вы не можете прикреплять файлы к сообщениям
    Вы можете скачивать файлы