Достать ножи: Стеклянная луковица

MVO

Добыча

Дубляж

Уэнсдэй

1 сезон

Тор

Дубляж

13 клиническая

1 сезон

Жестокая ночь

MVO

Одни из нас

1 сезон

Deluxe

pack

Рекомендуем

30

Пиратка

ВАЖНО

ВАЖНО

Ghostwire

Пиратка

jed

RePack

nioh2

RePack

RDR2

RePack

NEED FOR SPEED™ PAYBACK

RePack

скачать торрент

Кинопоиск HD

Острые козырьки 6 сезон

6 сезон

FAR CRY 6

RePack

скачать торрент

Лицензия

скачать торрент

MVO

1

1 сезон

скачать торрент

1 сезон

скачать торрент

Лицензия

  

Форсаж 8 / The Fate of the Furious (Ф. Гэри Грей) [2017 г., боевик, триллер, криминал, BDRip 1080p, HEVC (10bit), Дубляж]

Форсаж 8 через торрент pb.wtf

Размер: 5.6 GB | Добавлен: 4 года 7 мес. назад | Торрент скачан:433 раза
Смотреть онлайн | Скачать | Поддержите нас   

16-06-2018 11:21 Форсаж 8 Скачать торрент  

Форсаж 8 / The Fate of the Furious
Год выпуска: 2017
Страна: Китай, США, Япония
Жанр: боевик, триллер, криминал
Продолжительность: 02:15:57
Перевод: Дубляж
Субтитры: Отсутствуют

Режиссер: Ф. Гэри Грей

rating

В ролях: Вин Дизель, Дуэйн Джонсон, Джейсон Стэйтем, Мишель Родригес, Тайриз Гибсон, Лудакрис, Натали Эммануэль, Курт Расселл, Скотт Иствуд, Шарлиз Терон

Описание: Пристегните ремни — гонка продолжается. Гавана, Берлин, Нью-Йорк — для самой крутой команды в мире нет ничего невозможного, пока они вместе. Но когда на их пути окажется одна из самых красивых женщин на планете и по совместительству королева киберпреступности, дороги друзей разойдутся.
Доп. информация: -
H.265/HEVC (High Efficiency Video Coding) - это новый стандарт кодирования видео.
- Стандарт H.265/HEVC является логическим продолжением стандарта
H.264/AVC (Advanced Video Coding), и характеризуется более эффективными
алгоритмами сжатия, а также поддержкой высокого разрешения вплоть до 8K UHD
(8192x4320). Первая версия стандарта H.265 была опубликована в начале 2013 года.
- Рипы в фомате HEVC поддерживается не всеми аппаратными проигрывателями.
- Для корректного воспроизведения может потребоваться обновление ПО.
- Владельцам несовместимого железа просьба не беспокоить,
есть альтернативные релизы.
Качество: BDRip 1080p
Формат: MKV
Видео кодек: H.265
Аудио кодек: AC3
Видео: 1920x804, ~7096 Kbps 10bit
Аудио: AC3, 6 ch, 448 Kbps
Релиз от: HANNIBAL Семпл
Общее
Уникальный идентификатор : 204534579706076285518626134159174100196 (0x99DFED5B228C3EB99B5BDD6F33C764E4)
Полное имя : J:\ФИЛЬМЫ\The Fate of the Furious (2017) BDRip 1080p [HEVC] 10bit.mkv
Формат : Matroska
Версия формата : Version 4 / Version 2
Размер файла : 5,60 Гбайт
Продолжительность : 2 ч. 15 м.
Общий поток : 5894 Кбит/сек
Название фильма : The.Fate.of.the.Furious.2017.BDRemux.1080p
Дата кодирования : UTC 2017-09-21 14:07:44
Программа кодирования : mkvmerge v8.9.0 ('Father Daughter') 64bit
Библиотека кодирования : libebml v1.3.3 + libmatroska v1.4.4
Обложка : Yes
Attachments : cover.jpg

Видео
Идентификатор : 1
Формат : HEVC
Формат/Информация : High Efficiency Video Coding
Профиль формата : Main [email protected]@Main
Идентификатор кодека : V_MPEGH/ISO/HEVC
Продолжительность : 2 ч. 15 м.
Битрейт : 5451 Кбит/сек
Ширина : 1920 пикселей
Высота : 800 пикселей
Соотношение сторон : 2,40:1
Режим частоты кадров : Постоянный
Частота кадров : 23,976 (24000/1001) кадра/сек
Цветовое пространство : YUV
Субдискретизация насыщенности : 4:2:0
Битовая глубина : 10 бит
Бит/(Пиксели*Кадры) : 0.148
Размер потока : 5,17 Гбайт (92%)
Default : Да
Forced : Нет
Цветовой диапазон : Limited
Основные цвета : BT.709
Характеристики трансфера : BT.709
Коэффициенты матрицы : BT.709

Аудио
Идентификатор : 2
Формат : AC-3
Формат/Информация : Audio Coding 3
Идентификатор кодека : A_AC3
Продолжительность : 2 ч. 15 м.
Вид битрейта : Постоянный
Битрейт : 448 Кбит/сек
Каналы : 6 каналов
Расположение каналов : Front: L C R, Side: L R, LFE
Частота : 48,0 КГц
Частота кадров : 31,250 кадров/сек (1536 SPF)
Битовая глубина : 16 бит
Метод сжатия : С потерями
Размер потока : 436 Мбайт (8%)
Язык : Russian
ServiceKind/String : Complete Main
Default : Да
Forced : Нет

Меню
00:00:00.000 : en:00:00:00.000
00:13:08.913 : en:00:13:08.913
00:20:30.771 : en:00:20:30.771
00:26:38.639 : en:00:26:38.639
00:32:26.778 : en:00:32:26.778
00:36:40.573 : en:00:36:40.573
00:43:35.612 : en:00:43:35.613
00:47:45.780 : en:00:47:45.780
00:56:00.732 : en:00:56:00.732
01:04:08.303 : en:01:04:08.303
01:09:08.061 : en:01:09:08.061
01:13:24.274 : en:01:13:24.275
01:21:25.714 : en:01:21:25.714
01:29:29.948 : en:01:29:29.948
01:35:12.457 : en:01:35:12.457
01:39:55.781 : en:01:39:55.781
01:45:00.711 : en:01:45:00.711
01:53:01.858 : en:01:53:01.858
02:01:51.262 : en:02:01:51.262
02:06:45.097 : en:02:06:45.097




Скачать Форсаж 8 через торрент https://b.radikal.ru/b37/1806/9a/854968fa9319.jpg Скачать, смотреть онлайн Форсаж 8 бесплантно в хорошем качестве Описание: Пристегните ремни — гонка продолжается. Гавана, Берлин, Нью-Йорк — для самой крутой команды в мире нет ничего невозможного, пока ... 10 10 14
Торрент: Зарегистрирован [2018-06-16 11:21] · скачан: 433 раз
Статус: √ проверено
Размер: 5.6 GB
Как cкачать? Как скачать Форсаж 8 через торрент | UTorrent

% Раздел Тема Автор DL S | L
Ultra HD (UHD: 2K, 4K, 8K) [ 55.04 GB ] Форсаж 8 / The Fate of the Furious | Дубляж | 2160p sheker187 Скачать
1 | 0
R.G. Resident & PiratVoice - Фильмы, Видео [ 2.19 GB ] Форсаж 8 / The Fate of the Furious | Лицензия | BDRip от R.G.Resident -Lexx- Скачать
1 | 0
Фильмы 2017 [DVDrip, WEB-DLRip, HDrip] (DUB, MVO) [ 2.18 GB ] Форсаж 8 / The Fate of the Furious | Лицензия | BDRip Twi7ter Скачать
1 | 0
Фильмы 2017 [DVDrip, WEB-DLRip, HDrip] (DUB, MVO) [ 1.46 GB ] Форсаж 8 / The Fate of the Furious | Лицензия | BDRip Twi7ter Скачать
1 | 0
Фильмы [HD 720p, 1080p] (Хороший звук DUB, MVO) [ 7.02 GB ] Форсаж 8 / The Fate of the Furious | Лицензия | 720p Бумер Скачать
1 | 1
R.G. Resident & PiratVoice - Фильмы, Видео [ 5.6 GB ] Форсаж 8 / The Fate of the Furious | Лицензия | 720p Хорват Скачать
1 | 1

28-11-2019 20:33  


Отключить вcю реклaмy на сайте, в т.ч. и в плеере онлайн просмотра!

    Дорогой пользователь! Огромная просьба, поблагодарите релизера, оцените раздачу и оставьте свои комментарий, если Вы скачали Форсаж 8 через торрент бесплатно!!
    Комментировать посты могут только пользователи прошедшие не сложную регистрацию
    Показать сообщения:    


    Форсаж 8 через торрент
    Скачать бесплатно Форсаж 8
    Форсаж 8 скачать торрент
    Форсаж 8 смотреть онлайн
    Cкачать фильм Форсаж 8 бесплатно
    Форсаж 8 скачать торрент в хорошем качестве
    Форсаж 8 смотреть онлайн бесплатно в хорошем качестве
    Вы не можете начинать темы
    Вы не можете отвечать на сообщения
    Вы не можете редактировать свои сообщения
    Вы не можете удалять свои сообщения
    Вы не можете голосовать в опросах
    Вы не можете прикреплять файлы к сообщениям
    Вы можете скачивать файлы
    Форсаж 8 / The Fate of the Furious [2017 г., боевик, триллер, криминал, BDRip 1080p, HEVC , Дубляж] смотреть онлайн, скачать торрент picoco.icu