Ссылка на приватное зеркало нашего сайта всего за 1$. Внимание количество ограничено!!!

2 сезон

iTunes

1 сезон

1

2 сезон

2 сезон

iTunes

1 сезон

RePack

30

Ultimate

ВАЖНО

ИГРА 18+

pack

RePack

MK11
pack

Забери бонус

RePack

jed

!!Акция!!

Alien_Rage

RePack

fifa19

RePack

Assassins Creed: Odyssey

RePack

NEED FOR SPEED™ PAYBACK

4 сезон

9 сезон

Бесстыжие 9 сезон

Все сериалы

все сериалы на PB.wtf

RePack

FAR CRY 5
  

Странный ангел / Strange Angel / Сезон: 1 / Серии: 1-10 из 10 (Дэвид Лоури, Нельсон МакКормик, Бен Уитли) [2018, Фантастика, драма, WEB-DL 720p] MVO [NewStudio] pb.wtf

Странный ангел через торрент pb.wtf

Размер: 15.96 GB | Добавлен: 1 год 3 мес. назад | Торрент скачан:7 раз
Скачать  

16-06-2018 19:52 Странный ангел Скачать торрент  

Странный ангел / Strange Angel
Год выпуска: 2018
Страна: США
Жанр: Фантастика, драма
Продолжительность: ~00:54:00
Перевод: Профессиональный (многоголосый) | NewStudio
Субтитры: отсутствуют

Режиссер: Дэвид Лоури, Нельсон МакКормик, Бен Уитли

rating


В ролях: Питер Марк Кендалл, Джек Рейнор, Майкл Гэстон, Дэн Донохью, Рэнди Оглсби, Фил Абрамс, Курт Ёла, Роб Забрески, Коллин Фой

Описание: Джек Парсонс — знаменитый инженер, химик и оккультист. В 1930-х молодой человек, с детства увлекавшийся реактивным движением, начал работать уборщиком на химическом заводе в Лос-Анджелесе. Вскоре благодаря врожденному таланту и амбициям Парсонс смог положить начало американскому ракетостроению и стал одним из ключевых основателей Лаборатории реактивного движения. Однако интересы Парсона не ограничивались химией. В начале 1940-х, после кратковременного периода увлечения марксизмом, Парсонс заинтересовался учениями английского оккультиста Алистера Кроули и вместе с женой Хелен присоединился к калифорнийскому отделению ордена восточных тамплиеров.

Качество: WEB-DL 720p
Формат: MKV

Видео: 1280x668 at 23.976 fps, AVC, ~3500 kbps avg
Аудио#1: Russian: 48 kHz, AC3, 6 ch, ~384 kbps avg |Многоголосый закадровый, NewStudio|
Аудио#2: English: 48 kHz, E-AC3, 6 ch, ~640 kbps avg
скриншот  скриншот  скриншот  скриншот  

Общее
Уникальный идентификатор : 282176174878351916076482011834945734832 (0xD449278BF10165BB4260C6F6FCA988B0)
Полное имя : D:\Странный ангел 2018 сезон 1\Strange.Angel.s01e01.WEBDL.720p.NewStudio.TV.ADFree.mkv
Формат : Matroska
Версия формата : Version 4 / Version 2
Размер файла : 1,67 Гбайт
Продолжительность : 54 м. 28 с.
Общий поток : 4376 Кбит/сек
Дата кодирования : UTC 2018-06-20 14:43:38
Программа кодирования : mkvmerge v24.0.0 ('Beyond The Pale') 64-bit
Библиотека кодирования : libebml v1.3.6 + libmatroska v1.4.9

Видео
Идентификатор : 2
Формат : AVC
Формат/Информация : Advanced Video Codec
Профиль формата : High@L3.1
Параметр CABAC формата : Да
Параметр RefFrames формата : 5 кадров
Идентификатор кодека : V_MPEG4/ISO/AVC
Продолжительность : 54 м. 28 с.
Битрейт : 3451 Кбит/сек
Ширина : 1280 пикселей
Высота : 668 пикселей
Соотношение сторон : 16:9
Соотношение сторон в оригинале : 1,916
Режим частоты кадров : Постоянный
Частота кадров : 23,976 (24000/1001) кадра/сек
Цветовое пространство : YUV
Субдискретизация насыщенности : 4:2:0
Битовая глубина : 8 бит
Тип развёртки : Прогрессивная
Бит/(Пиксели*Кадры) : 0.163
Размер потока : 1,24 Гбайт (75%)
Библиотека кодирования : x264 core 152 r2854 e9a5903
Настройки программы : cabac=1 / ref=5 / deblock=1:0:0 / analyse=0x3:0x133 / me=dia / subme=11 / psy=1 / psy_rd=1.50:0.20 / mixed_ref=1 / me_range=16 / chroma_me=1 / trellis=2 / 8x8dct=1 / cqm=0 / deadzone=21,11 / fast_pskip=1 / chroma_qp_offset=-3 / threads=6 / lookahead_threads=1 / sliced_threads=0 / nr=0 / decimate=1 / interlaced=0 / bluray_compat=0 / constrained_intra=0 / bframes=5 / b_pyramid=0 / b_adapt=1 / b_bias=0 / direct=3 / weightb=1 / open_gop=0 / weightp=2 / keyint=250 / keyint_min=25 / scenecut=40 / intra_refresh=0 / rc_lookahead=40 / rc=2pass / mbtree=1 / bitrate=3351 / ratetol=1.0 / qcomp=0.60 / qpmin=10 / qpmax=51 / qpstep=4 / cplxblur=20.0 / qblur=0.5 / ip_ratio=1.50 / aq=1:1.00
Default : Да
Forced : Нет

Аудио #1
Идентификатор : 1
Формат : AC-3
Формат/Информация : Audio Coding 3
Расширение режима : CM (complete main)
Параметр Endianness формата : Big
Идентификатор кодека : A_AC3
Продолжительность : 54 м. 28 с.
Вид битрейта : Постоянный
Битрейт : 384 Кбит/сек
Каналы : 6 каналов
Расположение каналов : Front: L C R, Side: L R, LFE
Частота : 48,0 КГц
Частота кадров : 31,250 кадров/сек (1536 spf)
Метод сжатия : С потерями
Задержка видео : -417 мс.
Размер потока : 150 Мбайт (9%)
Заголовок : NewStudio
Язык : Russian
Default : Да
Forced : Да

Аудио #2
Идентификатор : 3
Формат : E-AC-3
Формат/Информация : Audio Coding 3
Параметр Endianness формата : Big
Идентификатор кодека : A_EAC3
Продолжительность : 54 м. 28 с.
Вид битрейта : Постоянный
Битрейт : 640 Кбит/сек
Каналы : 6 каналов
Расположение каналов : Front: L C R, Side: L R, LFE
Частота : 48,0 КГц
Частота кадров : 187,500 кадров/сек (256 spf)
Метод сжатия : С потерями
Размер потока : 249 Мбайт (15%)
Default : Нет
Forced : Нет

Внимание! Раздача ведётся путём добавления новых серий; при каждом добавлении создаётся новый торрент. Чтобы начать докачку новой серии, пользователям необходимо сделать следующее:
(1) остановить скачивание,
(2) удалить старый торрент-файл у себя из клиента (старые серии удалять не надо),
(3) скачать новый торрент-файл из раздачи и запустить его у себя в клиенте вместо старого, при этом указать клиенту путь в старую папку, куда и должно происходить скачивание новых серий.
pb.wtf



Скачать Странный ангел через торрент http://pic1.kartinco.top/images/12/9lmie.jpg Скачать фильм Странный ангел через торрент бесплантно в хорошем качестве Описание: Джек Парсонс — знаменитый инженер, химик и оккультист. В 1930-х молодой человек, с детства увлекавшийся реактивным движением, ... 10 10 2
Торрент: Зарегистрирован [2019-07-26 14:36] · скачан: 7 раз
Статус: √ проверено
Размер: 15.96 GB
Как cкачать? Как скачать Странный ангел через торрент | qTorrent

% Раздел Тема Автор DL S | L
Зарубежные сериалы [ 13.44 GB ] Странный ангел / Strange Angel / Сезон: 2 / Серии: 1-7 из 7 [2019 WEBRip 1080p] [MVO] killermax2013 Скачать
1 | 0
Зарубежные сериалы [ 6.01 GB ] Странный ангел / Strange Angel / Сезон: 1 / Серии: 1-10 из 10 [2018 WEBRip] [MVO] killermax2013 Скачать
1 | 0
Зарубежные сериалы [ 16.86 GB ] Странный ангел / Strange Angel / Сезон: 1 / Серии: 1-10 из 10 [2018 WEBRip 720p] [MVO] killermax2013 Скачать
1 | 0
Зарубежные сериалы [ 15.96 GB ] Странный ангел / Strange Angel / Сезон: 1 / Серии: 1-10 из 10 [2018 WEB-DL 720p] MVO [LostFilm] bober100 Скачать
1 | 0
Зарубежные сериалы [ 13.27 GB ] Странный ангел / Strange Angel / Сезон: 1 / Серии: 1-10 из 10 [2018 WEB-DL 720p] [MVO] killermax2013 Скачать
1 | 0
Зарубежные сериалы [ 5.82 GB ] Странный ангел / Strange Angel / Сезон: 1 / Серии: 1-10 из 10 [2018 WEB-DLRip] MVO [AlexFilm] bober100 Скачать
1 | 0
Зарубежные сериалы [ 9.84 GB ] Странный ангел / Strange Angel / Сезон: 1 / Серии: 1-10 из 10 [2018 WEB-DLRip] MVO [NewStudio] bober100 Скачать
1 | 0

28-11-2019 20:33  

Отключить всю рекламу на сайте

    Дорогой пользователь! Огромная просьба, поблагодарите релизера, оцените раздачу и оставьте свои комментарий, если Вы скачали Странный ангел через торрент бесплатно! Внесите свою лепту в развитие PiratBit!
    Комментировать посты могут только пользователи прошедшие не сложную регистрацию
    Показать сообщения:    

    Странный ангел через торрент
    Скачать бесплатно Странный ангел
    Странный ангел скачать торрент
    Странный ангел смотреть онлайн
    Cкачать фильм Странный ангел бесплатно
    Странный ангел скачать торрент в хорошем качестве
    Странный ангел смотреть онлайн бесплатно в хорошем качестве


    Вы не можете начинать темы
    Вы не можете отвечать на сообщения
    Вы не можете редактировать свои сообщения
    Вы не можете удалять свои сообщения
    Вы не можете голосовать в опросах
    Вы не можете прикреплять файлы к сообщениям
    Вы можете скачивать файлы