Ссылка на приватное зеркало нашего сайта всего за 1$. Внимание количество ограничено!!!

2 сезон

iTunes

1 сезон

1

iTunes

iTunes

iTunes

1 сезон

RePack

30

ИГРА 18+

pack

ВАЖНО

!!Акция!!

Alien_RageХит недели

RePack

MK11
pack

Забери бонус

RePack

jed

!!Акция!!

Alien_Rage

RePack

fifa19

RePack

Assassins Creed: Odyssey

RePack

NEED FOR SPEED™ PAYBACK

4 сезон

9 сезон

Бесстыжие 9 сезон

Все сериалы

все сериалы на PB.wtf

RePack

FAR CRY 5
  

Под прицелом / Сезон: 1 / Серии: 1-16 из 16 (Виктор Конисевич) [2014, Остросюжетный фильм, детектив, криминал, SATRip] pb.wtf

Под прицелом через торрент pb.wtf

Размер: 8.61 GB | Добавлен: 2 года 4 мес. назад | Торрент скачан:201 раз
Скачать  

17-06-2018 05:11 Под прицелом Скачать торрент  

Под прицеломГод выпуска: 2014
Страна: Россия
Жанр: Остросюжетный фильм, детектив, криминал
Продолжительность: ~ 00:45:00
Субтитры: отсутствуют

Режиссер: Виктор Конисевич



В ролях:

Нина Гогаева, Андрей Стоянов, Роман Курцын, Сергей Жарков, Игорь Савочкин, Игорь Головин, Борис Каморзин, Наталья Тетенова, Евгений Мундум, Дарья Семенова, Александр Касаткин (II), Игорь Климов, Андрей Вальц, Денис Синявский, Валерий Новиков, Андрей Харитонов, Павел Фартуков, Дмитрий Бакунин, Владимир Гусев (II), Татьяна Липницкая

Описание:

Руководство одного из столичных отделений полиции решило провести эксперимент – в целях улучшения качества работы сотрудников во время службы будут снимать камеры наблюдения. Они, конечно, не в восторге, но вынуждены подчиниться распоряжению начальства. Теперь полицейским нужно научиться расследовать преступления и работать с нарушителями очень осторожно… У каждого сотрудника своя история и проблемы. Старший следователь, майор Афродита Морозова, и старший оперуполномоченный, подполковник Антон Раевский, явно симпатизируют друг другу. Но у женщины сложные отношения с мужем, а Раевский хочет уйти на пенсию, так как не видит для себя перспектив. Не все благополучно и у их коллег. Старший следователь Юлия Хорькова содержит мужа-художника и никак не может забеременеть. Участковый Павел Карасев потерял год назад в автокатастрофе жену и сына, и это часто заставляет его задумываться о самоубийстве. А девушка старшего оперуполномоченного — капитана Олега Павлова, известная в Москве певица, недовольна тем, что тот мало зарабатывает. Похоже, что все хорошо только у старшего участкового Николая Сливина: у него и жена, и любовница, и взятки… Каково им будет жить на виду?

Качество: SATRip
Формат: AVI

Видео: XviD, ~ 1600 Кбит/с, 720x400
Аудио: AC3, 2 ch, 192 kbps
скриншот   скриншот   скриншот   скриншот  

Общее
Полное имя : E:\Pod.pritselom.2013.SATRip.MediaClub\Pod.pritselom.(01.seriya.iz.16).2014.XviD.SATRip.MediaClub.avi
Формат : AVI
Формат/Информация : Audio Video Interleave
Размер файла : 551 Мбайт
Продолжительность : 43 м. 39 с.
Общий поток : 1765 Кбит/сек
Программа кодирования : VirtualDubMod 1.5.10.3 | www.virtualdub-fr.org || (build 2550/release)
Библиотека кодирования : Boilsoft AVI tool build 1/release

Видео
Идентификатор : 0
Формат : MPEG-4 Visual
Профиль формата : Advanced Simple@L5
Настройки формата : BVOP1 / Custom Matrix
Параметр BVOP формата : 1
Параметр QPel формата : Нет
Параметр GMC формата : Без точки перехода
Параметр матрицы формата : Выборочная
Идентификатор кодека : XVID
Идентификатор кодека/Подсказка : XviD
Продолжительность : 43 м. 39 с.
Битрейт : 1563 Кбит/сек
Ширина : 720 пикселей
Высота : 400 пикселей
Соотношение сторон : 16:9
Частота кадров : 25,000 кадров/сек
Цветовое пространство : YUV
Субдискретизация насыщенности : 4:2:0
Битовая глубина : 8 бит
Тип развёртки : Прогрессивная
Метод сжатия : С потерями
Бит/(Пиксели*Кадры) : 0.217
Размер потока : 488 Мбайт (89%)
Библиотека кодирования : XviD 73

Аудио
Идентификатор : 1
Формат : AC-3
Формат/Информация : Audio Coding 3
Идентификатор кодека : 2000
Продолжительность : 43 м. 39 с.
Вид битрейта : Постоянный
Битрейт : 192 Кбит/сек
Каналы : 2 канала
Расположение каналов : Front: L R
Частота : 48,0 КГц
Частота кадров : 31,250 кадров/сек (1536 SPF)
Битовая глубина : 16 бит
Метод сжатия : С потерями
Размер потока : 60,0 Мбайт (11%)
Выравнивание : Разделение по промежуткам
Продолжительность промежутка : 40 мс. (1,00 видеокадр)
Время предзагрузки промежутка : 500 мс.
ServiceKind/String : Complete Main

pb.wtf



Скачать Под прицелом через торрент http://img12.lostpic.net/2018/06/17/86dc07918e488215c7494e84e907ceb5.jpg Скачать фильм Под прицелом через торрент бесплантно в хорошем качестве Описание: Руководство одного из столичных отделений полиции решило провести эксперимент – в целях улучшения качества работы сотрудников во ... 10 10 6
Торрент: Зарегистрирован [2018-06-17 05:11] · скачан: 201 раз
Статус: √ проверено
Размер: 8.61 GB
Как cкачать? Как скачать Под прицелом через торрент | qTorrent

28-11-2019 20:33  

Отключить всю рекламу на сайте

07-07-2018 19:12 Под прицелом Скачать торрент  

pb.wtf



    Дорогой пользователь! Огромная просьба, поблагодарите релизера, оцените раздачу и оставьте свои комментарий, если Вы скачали Под прицелом через торрент бесплатно! Внесите свою лепту в развитие PiratBit!
    Комментировать посты могут только пользователи прошедшие не сложную регистрацию
    Показать сообщения:    

    Под прицелом через торрент
    Скачать бесплатно Под прицелом
    Под прицелом скачать торрент
    Под прицелом смотреть онлайн
    Cкачать фильм Под прицелом бесплатно
    Под прицелом скачать торрент в хорошем качестве
    Под прицелом смотреть онлайн бесплатно в хорошем качестве


    Вы не можете начинать темы
    Вы не можете отвечать на сообщения
    Вы не можете редактировать свои сообщения
    Вы не можете удалять свои сообщения
    Вы не можете голосовать в опросах
    Вы не можете прикреплять файлы к сообщениям
    Вы можете скачивать файлы