Ссылка на приватное зеркало нашего сайта всего за 1$. Внимание количество ограничено!!!

2 сезон

iTunes

1 сезон

1

iTunes

iTunes

iTunes

1 сезон

RePack

30

ИГРА 18+

pack

ВАЖНО

!!Акция!!

Alien_RageХит недели

RePack

MK11
pack

Забери бонус

RePack

jed

!!Акция!!

Alien_Rage

RePack

fifa19

RePack

Assassins Creed: Odyssey

RePack

NEED FOR SPEED™ PAYBACK

4 сезон

9 сезон

Бесстыжие 9 сезон

Все сериалы

все сериалы на PB.wtf

RePack

FAR CRY 5
  

Благими намерениями / Серии: 1-4 из 4 (Валерий Ибрагимов) [2018, Мелодрама, драма, HDTV 1080i] pb.wtf

Благими намерениями через торрент pb.wtf

Размер: 10.7 GB | Добавлен: 2 года 4 мес. назад | Торрент скачан:21 раз
Скачать  

17-06-2018 05:25 Благими намерениями Скачать торрент  

Благими намерениямиГод выпуска: 2018
Страна: Россия
Жанр: Мелодрама, драма
Продолжительность: ~ 00:50:00
Перевод: Не требуется
Субтитры: отсутствуют

Режиссер: Валерий Ибрагимов



В ролях:

Инга Оболдина, Дмитрий Шевченко, Екатерина Семёнова, Алёна Ивченко, Дмитрий Блажко, Анна Кошмал, Олег Масленников, Роман Кондратюк, Олег Коркушко, Павел Алдошин, Кристина Киселёва, Валерия Гуляева, Виктор Шестаков, Нина Касторф, Константин Костышин, Михаил Шамигулов, Виктор Степаненко (III)

Описание:

Анна и Дмитрий вместе вот уже почти четверть века. Прекрасная счастливая семья. Дочь Даша, правда, пытается вырваться из-под маминой опеки, но родители уверены, что она когда-нибудь поймет, что все делается для ее блага. И вдруг, как гром среди ясного неба, Анна узнает, что ее любимый и любящий муж Дмитрий — отец семилетнего мальчика. И все эти годы он обманывает ее! В то же время на работе у Анны начинают происходить странные события. Дмитрий подозревает, что Анну кто-то хочет убить. Разобраться и раскаяться в своих поступках предстоит всем. А некоторые заплатят своей жизнью…



Качество: HDTV 1080i
Формат: TS

Видео: MPEG-4 AVC, ~ 7100 Кбит/с, 1920x1080
Аудио: MP2, 2 ch, 192 Кбит/с
скриншот   скриншот   скриншот  

Общее
Идентификатор : 1 (0x1)
Полное имя : E:\Blagimi.namereniyami.2018.HDTV.1080i\Blagimi.namereniyami.01.2018.HDTV.1080i.ts
Формат : MPEG-TS
Размер файла : 2,70 Гбайт
Продолжительность : 50 м. 28 с.
Режим общего битрейта : Переменный
Общий поток : 7648 Кбит/сек

Видео
Идентификатор : 2911 (0xB5F)
Идентификатор меню : 1192 (0x4A8)
Формат : AVC
Формат/Информация : Advanced Video Codec
Профиль формата : High@L4
Настройки формата : CABAC / 4 Ref Frames
Параметр CABAC формата : Да
Параметр RefFrames формата : 4 кадра
Идентификатор кодека : 27
Продолжительность : 50 м. 28 с.
Битрейт : 7076 Кбит/сек
Ширина : 1920 пикселей
Высота : 1080 пикселей
Соотношение сторон : 16:9
Частота кадров : 25,000 кадров/сек
Цветовое пространство : YUV
Субдискретизация насыщенности : 4:2:0
Битовая глубина : 8 бит
Тип развёртки : MBAFF
Метод сохранения типа развёртки : Чередующиеся поля
Порядок развёртки : Верхнее поле первое
Бит/(Пиксели*Кадры) : 0.137
Размер потока : 2,49 Гбайт (93%)

Аудио
Идентификатор : 2912 (0xB60)
Идентификатор меню : 1192 (0x4A8)
Формат : MPEG Audio
Версия формата : Version 1
Профиль формата : Layer 2
Идентификатор кодека : 3
Продолжительность : 50 м. 28 с.
Вид битрейта : Постоянный
Битрейт : 192 Кбит/сек
Каналы : 2 канала
Частота : 48,0 КГц
Частота кадров : 41,667 кадра/сек (1152 SPF)
Метод сжатия : С потерями
Размер потока : 69,3 Мбайт (3%)
Язык : Russian

pb.wtf



Скачать Благими намерениями через торрент http://img12.lostpic.net/2018/06/17/72221fa4434166ebf734be0174f3da12.jpg Скачать фильм Благими намерениями через торрент бесплантно в хорошем качестве Описание: Анна и Дмитрий вместе вот уже почти четверть века. Прекрасная счастливая семья. Дочь Даша, правда, пытается вырваться из-под ... 10 10 2
Info! Золотая раздача, скачанное не засчитывается.
Торрент: Зарегистрирован [2018-06-17 05:25] · скачан: 21 раз
Статус: √ проверено
Размер: 10.7 GB
Как cкачать? Как скачать Благими намерениями через торрент | qTorrent

% Раздел Тема Автор DL S | L
Наши сериалы [ 2.18 GB ] Благими намерениями / Серии: 1-4 из 4 [2018 Мело HDTVRip] bober100 Скачать
1 | 0
Наши сериалы [ 2.7 GB ] Благими намерениями / Серия 1-4 из 4 [2018 ьный фильм SATRip] oleg8 Скачать
1 | 0

28-11-2019 20:33  

Отключить всю рекламу на сайте

    Дорогой пользователь! Огромная просьба, поблагодарите релизера, оцените раздачу и оставьте свои комментарий, если Вы скачали Благими намерениями через торрент бесплатно! Внесите свою лепту в развитие PiratBit!
    Комментировать посты могут только пользователи прошедшие не сложную регистрацию
    Показать сообщения:    

    Благими намерениями через торрент
    Скачать бесплатно Благими намерениями
    Благими намерениями скачать торрент
    Благими намерениями смотреть онлайн
    Cкачать фильм Благими намерениями бесплатно
    Благими намерениями скачать торрент в хорошем качестве
    Благими намерениями смотреть онлайн бесплатно в хорошем качестве


    Вы не можете начинать темы
    Вы не можете отвечать на сообщения
    Вы не можете редактировать свои сообщения
    Вы не можете удалять свои сообщения
    Вы не можете голосовать в опросах
    Вы не можете прикреплять файлы к сообщениям
    Вы можете скачивать файлы