новый адрес
Мега распродажа FORZA HORIZON 4 ULTIMATE+ВСЕ DLC+ОНЛАЙН всего за 499р. 349 руб. (супер цена). Внимание количество ограничено!!!

iTunes

1+1

iTunes

мы

iTunes

1

iTunes

Чернобыль

iTunes

Ральф против интернета

Лицензия

ПШазам

Лицензия

Оно 2

Лицензия

30
pack

ВАЖНО

!!Акция!!

Alien_RageХит недели

RePack

Resident Evil 21

ИГРА 18+

pack

RePack

jed

!!Акция!!

Alien_Rage

RePack

fifa19

RePack

Assassins Creed: Odyssey

RePack

NEED FOR SPEED™ PAYBACK

3 сезон

9 сезон

Бесстыжие 9 сезон

Все сериалы

все сериалы на PB.wtf

RePack

FAR CRY 5
Ребята, катастрофически не хватает 1900р. для оплаты серверов за Октябрь (всвязи с блокировками трафик упал в 3 раза), 1-2р., выручайте.
  

Им было девятнадцать (Владимир Кочетов) [1960, СССР, драма, SATRip от AVP Studio] pb.wtf

Им было девятнадцать через торрент pb.wtf

Размер: 743 MB | Добавлен: 1 год 5 мес. назад | Торрент скачан:11 раз
Скачать  

17-06-2018 07:54 Им было девятнадцать Скачать торрент  

Им было девятнадцать
Страна: СССР
Производство: Одесская киностудия

Жанр: драма
Год выпуска: 1960
Продолжительность: 01:13:01

Перевод: Не требуется
Cубтитры: нет
Оригинальная аудиодорожка: русский

Режиссер: Владимир Кочетов

В ролях:
Кирилл Столяров, Людмила Мерщий, Николай Засеев-Руденко, Николай Крюков, Вадим Новиков, Михаил Пуговкин, Юрий Мартынов, Олесь Рудковский, Савелий Крамаров, Ю. Рождественский, Сергей Столяров, Борис Сабуров...
Об актёрах подробней

Описание:
В артиллерийскую школу пришло новое пополнение. Обходя новобранцев, старшина Баба пытается опытным взглядом определить личные качества каждого. У Анатолия Бескова тревожно на душе. Он хотел заменить в армии отца, погибшего лётчика-испытателя. Но комиссия признала его негодным к службе в авиации. Не испытывая интереса к артиллерии, юноша то и дело допускает ошибки. Вспыльчивый лейтенант Серов просит замполита Лепко удалить Бескова из его взвода. Но замполит считает, что надо заниматься воспитанием молодого солдата. Поддерживает Толю и Ольга. Девушка знает, что он упорно тренируется, готовясь к новой медкомиссии. Беседа с замполитом открыла Бескову простую истину, что всякая армейская школа есть школа мужества и патриотизма. С этого момента Анатолий старается завоевать уважение товарищей и стать примерным курсантом. Он успешно проходит комиссию и получает направление в авиацию.

Исходник: DVB
Качество видео: SATRip
Формат видео: AVI

Видео: 688x512 (4:3), 25,000 кадров/сек, XviD ~ 1222 kbps avg, 0.139 bit/pixel
Аудио: 48 kHz, Dolby Digital AC3 2.0, 192 kbps

Раздача от:
Общее
Полное имя : Im.bylo.devyatnadcat...1960.SATRip_[New-team]_by_AVP_Studio.avi
Формат : AVI
Формат/Информация : Audio Video Interleave
Размер файла : 743 Мбайт
Продолжительность : 1 ч. 13 м.
Общий поток : 1423 Кбит/сек
Программа кодирования : VirtualDubMod 1.5.10.3 | www.virtualdub-fr.org || (build 2550/release)
Библиотека кодирования : VirtualDubMod build 2550/release

Видео
Идентификатор : 0
Формат : MPEG-4 Visual
Профиль формата : Advanced Simple@L5
Настройки формата : BVOP1 / Custom Matrix
Параметр BVOP формата : 1
Параметр QPel формата : Нет
Параметр GMC формата : Без точки перехода
Параметр матрицы формата : Выборочная
Идентификатор кодека : XVID
Идентификатор кодека/Подсказка : XviD
Продолжительность : 1 ч. 13 м.
Битрейт : 1222 Кбит/сек
Ширина : 688 пикселей
Высота : 512 пикселей
Соотношение сторон : 4:3
Частота кадров : 25,000 кадров/сек
Цветовое пространство : YUV
Субдискретизация насыщенности : 4:2:0
Битовая глубина : 8 бит
Тип развёртки : Прогрессивная
Метод сжатия : С потерями
Бит/(Пиксели*Кадры) : 0.139
Размер потока : 638 Мбайт (86%)
Библиотека кодирования : XviD 73

Аудио
Идентификатор : 1
Формат : AC-3
Формат/Информация : Audio Coding 3
Идентификатор кодека : 2000
Продолжительность : 1 ч. 13 м.
Вид битрейта : Постоянный
Битрейт : 192 Кбит/сек
Каналы : 2 канала
Расположение каналов : Front: L R
Частота : 48,0 КГц
Частота кадров : 31,250 кадров/сек (1536 SPF)
Битовая глубина : 16 бит
Метод сжатия : С потерями
Размер потока : 100 Мбайт (13%)
Выравнивание : Разделение по промежуткам
Продолжительность промежутка : 40 мс. (1,00 видеокадр)
Время предзагрузки промежутка : 500 мс
pb.wtf



Скачать Им было девятнадцать через торрент http://picplus.ru/img/1806/15/052b92ee.png Скачать фильм Им было девятнадцать через торрент бесплантно в хорошем качестве Описание:В артиллерийскую школу пришло новое пополнение. Обходя новобранцев, старшина Баба пытается опытным взглядом определить личные ... 10 10 1
Info! Золотая раздача, скачанное не засчитывается.
Торрент: Зарегистрирован [2018-06-17 07:54] · скачан: 11 раз
Статус: √ проверено
Размер: 743 MB
Как cкачать? Как скачать Им было девятнадцать через торрент | qTorrent

% Раздел Тема Автор DL S | L
Кино СССР [ 745 MB ] Им было девятнадцать [1960 СССР SATRip-AVC от AVP Studio] AVP Studio Скачать
1 | 0


>> Регистрируемся здесь <<






Отзывы и комментарии о схеме читаем и пишем здесь: ---> Отзывы и комментарии о схеме

Новые благодарочки в телеграм довольных пользователей:
скриншот   скриншот   скриншот   скриншот   скриншот
    Дорогой пользователь! Огромная просьба, поблагодарите релизера, оцените раздачу и оставьте свои комментарий, если Вы скачали Им было девятнадцать через торрент бесплатно! Внесите свою лепту в развитие PiratBit!
    Комментировать посты могут только пользователи прошедшие не сложную регистрацию
    Показать сообщения:    

    Им было девятнадцать через торрент
    Скачать бесплатно Им было девятнадцать
    Им было девятнадцать скачать торрент
    Им было девятнадцать смотреть онлайн
    Cкачать фильм Им было девятнадцать бесплатно
    Им было девятнадцать скачать торрент в хорошем качестве
    Им было девятнадцать смотреть онлайн бесплатно в хорошем качестве


    Вы не можете начинать темы
    Вы не можете отвечать на сообщения
    Вы не можете редактировать свои сообщения
    Вы не можете удалять свои сообщения
    Вы не можете голосовать в опросах
    Вы не можете прикреплять файлы к сообщениям
    Вы можете скачивать файлы