Всегда рабочее зеркало без VPN и Proxy просто перед .vidak.icu напиши любое слово или цифру, Пример http://o7dx.vidak.icu

MVO

2 сезон

2 сезон

1

1 сезон

iTunes

2 сезон

13

1 сезон

Deluxe

pack

Рекомендуем

Пиратка

30

ВАЖНО

RePack

MK11

RePack

jed

RePack

fifa19

RePack

RDR2

RePack

NEED FOR SPEED™ PAYBACK

Кинопоиск HD

6 сезон

 Острые козырьки 6 сезон

Все сериалы

все сериалы на PB.wtf

RePack

FAR CRY 5

Anonymous, нам критически не хватает 5601 руб. на оплату серверов и переферии за Апрель, помоги нам пожалуйста, вся надежда только на тебя. В благодарность мы отключим тебе всю рекламу на сайте!

×
  
Magnet ссылка

Дюнкерк / Dunkirk (IMAX Edition) [2017, Военный, драма, история, BDRip 720p от _denis_100 | NNNB] DUB + 4хAVO + Original + Sub (2xRus,3xEng) pb.wtf

Дюнкерк через торрент pb.wtf

Размер: 7.54 GB | Добавлен: 3 года 11 мес. назад | Торрент скачан:154 раза
Смотреть онлайн Дюнкерк | Скачать    Ребята, помогите собрать деньги на оплату серверов!!!

17-06-2018 08:47 Дюнкерк Скачать торрент  

Дюнкерк / Dunkirk (IMAX Edition)




Год выпуска: 2017
Страна: Нидерланды, Великобритания, Франция, США
Жанр: Военный, драма, история
Продолжительность: 01:46:38
Перевод: Дублированный, Авторский одноголосый
Субтитры: русские (Forced), русские (Full), английские (Full), английские (SDH), английские (SDH-Colored)
Режиссер: Кристофер Нолан
В ролях: Финн Уайтхед, Том Глинн-Карни, Джек Лауден, Гарри Стайлс, Анейрин Барнард, Джеймс Д`Арси, Барри Кеоган, Кеннет Брана, Киллиан Мёрфи, Марк Райлэнс
Описание:
Фильм расскажет историю чудесного спасения более трехсот тысяч солдат в ходе Дюнкеркской операции, имевшей место в начале Второй мировой войны. События начинаются с окружения сотен тысяч британских и союзных войск силами противника. Пойманные в ловушку на пляже, и находясь спиной к морю, они сталкиваются лицом к лицу с неразрешимой ситуацией, тем временем как тиски противника сжимаются все сильнее и сильнее

Качество: BDRip 720p
Контейнер (Расширение): MKV
Видео: 1280x720, 6480 Кбит/сек, 23,976 кадр/сек, 0,293 Бит/[Пиксели*Кадры]
Аудио №1: русский / AC3 / 5.1 / 48 kHz / 448 kbps / |Дублированный, Blu-ray CEE|
Аудио №2: русский / AC3 / 5.1 / 48 kHz / 640 kbps / |Авторский одноголосый, Ю.Сербин|
Аудио №3: русский / AC3 / 5.1 / 48 kHz / 640 kbps / |Авторский одноголосый, А.Гаврилов|
Аудио №4: русский / AC3 / 5.1 / 48 kHz / 640 kbps / |Авторский одноголосый, Д.Есарев|
Аудио №5: русский / AC3 / 5.1 / 48 kHz / 640 kbps / |Авторский одноголосый, В.Дохалов|
Аудио №6: английский / AC3 / 5.1 / 48 kHz / 640 kbps /
Навигация по главам(Чаптеры): естьАвтор рипа: Группа:
Format : Matroska
Format version : Version 2
File size : 7.54 GiB
Duration : 1 h 46 min
Overall bit rate : 10.1 Mb/s
Movie name : Dunkirk.(2017).BDRip.720p.[denis100]
Encoded date : UTC 2018-06-17 08:05:30
Writing application : mkvmerge v5.8.0 ('No Sleep / Pillow') built on Sep 2 2012 15:37:04
Writing library : libebml v1.2.3 + libmatroska v1.3.0

Video
ID : 1
Format : AVC
Format/Info : Advanced Video Codec
Format profile : High@L4.1
Format settings : CABAC / 9 Ref Frames
Format settings, CABAC : Yes
Format settings, ReFrames : 9 frames
Codec ID : V_MPEG4/ISO/AVC
Duration : 1 h 46 min
Bit rate : 6 480 kb/s
Width : 1 280 pixels
Height : 720 pixels
Display aspect ratio : 16:9
Frame rate mode : Constant
Frame rate : 23.976 (24000/1001) FPS
Color space : YUV
Chroma subsampling : 4:2:0
Bit depth : 8 bits
Scan type : Progressive
Bits/(Pixel*Frame) : 0.293
Stream size : 4.68 GiB (62%)
Title : Dunkirk.(2017).BDRip.720p.[denis100]
Writing library : x264 core 155 r2901 7d0ff22
Encoding settings : cabac=1 / ref=9 / deblock=1:-3:-3 / analyse=0x3:0x113 / me=umh / subme=11 / psy=1 / psy_rd=1.00:0.05 / mixed_ref=1 / me_range=32 / chroma_me=1 / trellis=2 / 8x8dct=1 / cqm=0 / deadzone=21,11 / fast_pskip=0 / chroma_qp_offset=-3 / threads=6 / lookahead_threads=1 / sliced_threads=0 / nr=0 / decimate=1 / interlaced=0 / bluray_compat=0 / constrained_intra=0 / bframes=12 / b_pyramid=2 / b_adapt=2 / b_bias=0 / direct=3 / weightb=0 / open_gop=0 / weightp=2 / keyint=240 / keyint_min=23 / scenecut=40 / intra_refresh=0 / rc=2pass / mbtree=0 / bitrate=6480 / ratetol=1.0 / qcomp=0.60 / qpmin=0 / qpmax=69 / qpstep=4 / cplxblur=20.0 / qblur=0.5 / ip_ratio=1.40 / pb_ratio=1.30 / aq=1:0.90
Language : English
Default : Yes
Forced : No

Audio #1
ID : 2
Format : AC-3
Format/Info : Audio Coding 3
Codec ID : A_AC3
Duration : 1 h 46 min
Bit rate mode : Constant
Bit rate : 448 kb/s
Channel(s) : 6 channels
Channel positions : Front: L C R, Side: L R, LFE
Sampling rate : 48.0 kHz
Frame rate : 31.250 FPS (1536 SPF)
Bit depth : 16 bits
Compression mode : Lossy
Stream size : 342 MiB (4%)
Title : DUB, Blu-ray CEE
Language : Russian
Service kind : Complete Main
Default : Yes
Forced : No

Audio #2
ID : 3
Format : AC-3
Format/Info : Audio Coding 3
Codec ID : A_AC3
Duration : 1 h 46 min
Bit rate mode : Constant
Bit rate : 640 kb/s
Channel(s) : 6 channels
Channel positions : Front: L C R, Side: L R, LFE
Sampling rate : 48.0 kHz
Frame rate : 31.250 FPS (1536 SPF)
Bit depth : 16 bits
Compression mode : Lossy
Stream size : 488 MiB (6%)
Title : AVO, Ю.Сербин
Language : Russian
Service kind : Complete Main
Default : No
Forced : No

Audio #3
ID : 4
Format : AC-3
Format/Info : Audio Coding 3
Codec ID : A_AC3
Duration : 1 h 46 min
Bit rate mode : Constant
Bit rate : 640 kb/s
Channel(s) : 6 channels
Channel positions : Front: L C R, Side: L R, LFE
Sampling rate : 48.0 kHz
Frame rate : 31.250 FPS (1536 SPF)
Bit depth : 16 bits
Compression mode : Lossy
Stream size : 488 MiB (6%)
Title : AVO, А.Гаврилов
Language : Russian
Service kind : Complete Main
Default : No
Forced : No

Audio #4
ID : 5
Format : AC-3
Format/Info : Audio Coding 3
Codec ID : A_AC3
Duration : 1 h 46 min
Bit rate mode : Constant
Bit rate : 640 kb/s
Channel(s) : 6 channels
Channel positions : Front: L C R, Side: L R, LFE
Sampling rate : 48.0 kHz
Frame rate : 31.250 FPS (1536 SPF)
Bit depth : 16 bits
Compression mode : Lossy
Stream size : 488 MiB (6%)
Title : AVO, Д.Есарев
Language : Russian
Service kind : Complete Main
Default : No
Forced : No

Audio #5
ID : 6
Format : AC-3
Format/Info : Audio Coding 3
Codec ID : A_AC3
Duration : 1 h 46 min
Bit rate mode : Constant
Bit rate : 640 kb/s
Channel(s) : 6 channels
Channel positions : Front: L C R, Side: L R, LFE
Sampling rate : 48.0 kHz
Frame rate : 31.250 FPS (1536 SPF)
Bit depth : 16 bits
Compression mode : Lossy
Stream size : 488 MiB (6%)
Title : AVO, В.Дохалов
Language : Russian
Service kind : Complete Main
Default : No
Forced : No

Audio #6
ID : 7
Format : AC-3
Format/Info : Audio Coding 3
Codec ID : A_AC3
Duration : 1 h 46 min
Bit rate mode : Constant
Bit rate : 640 kb/s
Channel(s) : 6 channels
Channel positions : Front: L C R, Side: L R, LFE
Sampling rate : 48.0 kHz
Frame rate : 31.250 FPS (1536 SPF)
Bit depth : 16 bits
Compression mode : Lossy
Stream size : 488 MiB (6%)
Language : English
Service kind : Complete Main
Default : No
Forced : No

Text #1
ID : 8
Format : UTF-8
Codec ID : S_TEXT/UTF8
Codec ID/Info : UTF-8 Plain Text
Title : Forced
Language : Russian
Default : Yes
Forced : No

Text #2
ID : 9
Format : UTF-8
Codec ID : S_TEXT/UTF8
Codec ID/Info : UTF-8 Plain Text
Title : Blu-ray CEE
Language : Russian
Default : No
Forced : No

Text #3
ID : 10
Format : UTF-8
Codec ID : S_TEXT/UTF8
Codec ID/Info : UTF-8 Plain Text
Title : Full
Language : English
Default : No
Forced : No

Text #4
ID : 11
Format : UTF-8
Codec ID : S_TEXT/UTF8
Codec ID/Info : UTF-8 Plain Text
Title : SDH
Language : English
Default : No
Forced : No

Text #5
ID : 12
Format : UTF-8
Codec ID : S_TEXT/UTF8
Codec ID/Info : UTF-8 Plain Text
Title : SDH-Colored
Language : English
Default : No
Forced : No

Menu
00:00:00.000 : en:(01)00:00:00:000
00:08:51.364 : en:(02)00:08:51:364
00:20:13.754 : en:(03)00:20:13:754
00:29:07.620 : en:(04)00:29:07:620
00:42:35.261 : en:(05)00:42:35:261
00:52:48.206 : en:(06)00:52:48:206
01:04:32.827 : en:(07)01:04:32:827
01:12:50.824 : en:(08)01:12:50:824
01:25:55.024 : en:(09)01:25:55:024
01:33:23.347 : en:(10)01:33:23:347
01:39:13.906 : en:(11)01:39:13:906
01:46:38.016 : en:(12)01:46:38:016
скриншот   скриншот   скриншот   скриншот   скриншот  
pb.wtf



Скачать Дюнкерк через торрент http://i3.imageban.ru/out/2018/06/17/df0c8045e9b341eeb8a484617e87b8e4.png Скачать, смотреть онлайн Дюнкерк бесплантно в хорошем качестве Описание:Фильм расскажет историю чудесного спасения более трехсот тысяч солдат в ходе Дюнкеркской операции, имевшей место в начале Второй ... 8.5 10 6
Info! Золотая раздача, скачанное не засчитывается.
Торрент: Зарегистрирован [2018-06-17 08:47] · скачан: 154 раз
Статус: √ проверено
Размер: 7.54 GB
Как cкачать? Как скачать Дюнкерк через торрент | UTorrent

% Раздел Тема Автор DL S | L
Фильмы (HD 720p, 1080p) (48-60 fps) [ 15.65 GB ] Дюнкерк / Dunkirk [2017 Военный история BDRip 1080p / 60 FPS IMAX Оригинал] Tiberiumsun69 Скачать
1 | 0
Фильмы с авторской озвучкой [ 15.46 GB ] Дюнкерк / Dunkirk [1958 военный история BDRip 1080p by msltel] AVO msltel Скачать
1 | 0
Фильмы с авторской озвучкой [ 5.12 GB ] Дюнкерк / Dunkirk [1958 военный история BDRip 720p by msltel] AVO msltel Скачать
1 | 0
Ultra HD (UHD: 2K, 4K, 8K) — видео сверхвысокой чёткости [ 103.12 GB ] Дюнкерк / Dunkirk [2017 военный история UHD Blu-ray EUR 2160p] - [] [IMAX] sheker187 Скачать
1 | 0
Ultra HD (UHD: 2K, 4K, 8K) — видео сверхвысокой чёткости [ 55.96 GB ] Дюнкерк / Dunkirk [2017 военный история UHD Blu-ray 2160p] - [] [IMAX] sheker187 Скачать
1 | 0
Ultra HD (UHD: 2K, 4K, 8K) — видео сверхвысокой чёткости [ 52.79 GB ] Дюнкерк / Dunkirk [2017 военный история UHD BD Remux 2160p] 2xAVO [Есарев Гаврилов] +2xDUB [IMAX] [Sergesha BD CEE] bober100 Скачать
1 | 0
T Фильмы с украинским озвучиванием [ 1.45 GB ] Дюнкерк / Dunkirk [2017 военный история BDRip] [Ukr DUB] [Line] killermax2013 Скачать
1 | 0

28-11-2019 20:33  

Отключить всю рекламу на сайте

17-06-2018 23:23 Дюнкерк Скачать торрент  

Чудесное спасение? Ха! Алоизыч просто не хотел (боялся?) слишком сильно злить "наших партнёров" pb.wtf



    Дорогой пользователь! Огромная просьба, поблагодарите релизера, оцените раздачу и оставьте свои комментарий, если Вы скачали Дюнкерк через торрент бесплатно!
    Комментировать посты могут только пользователи прошедшие не сложную регистрацию
    Показать сообщения:    

    Дюнкерк через торрент
    Скачать бесплатно Дюнкерк
    Дюнкерк скачать торрент
    Дюнкерк смотреть онлайн
    Cкачать фильм Дюнкерк бесплатно
    Дюнкерк скачать торрент в хорошем качестве
    Дюнкерк смотреть онлайн бесплатно в хорошем качестве


    Вы не можете начинать темы
    Вы не можете отвечать на сообщения
    Вы не можете редактировать свои сообщения
    Вы не можете удалять свои сообщения
    Вы не можете голосовать в опросах
    Вы не можете прикреплять файлы к сообщениям
    Вы можете скачивать файлы